Скачать Ромео и Джульетта / Romeo and Juliet (2013) BDRip 1080p | Лицензия через торрент бесплатно на пк






Информация о фильме
Качество: BDRip (1080p)
Жанр: Драма, мелодрама
Видео: MPEG-4 AVC, 9500 Кбит/с, 1920x800
Перевод: Дублированный [лицензия]

MIОбщее
Уникальный идентификатор : 171562058791076047745362228232638541646 (0x8111A68FFDFCD4EFA91D9241B36DAF4E)
Полное имя : D:Romeo_and_Juliet_2013_1080p.CMEGRoup.mkv
Формат : Matroska
Версия формата : Version 2
Размер файла : 9,23 Гбайт
Продолжительность : 1 ч. 53 м.
Общий поток : 11,7 Мбит/сек
Название фильма : CMEGRoup
Дата кодирования : UTC 2013-12-18 09:01:41
Программа кодирования : mkvmerge v6.3.0 ('You can't stop me!') built on Jun 28 2013 20:09:41
Библиотека кодирования : libebml v1.3.0 + libmatroska v1.4.0

Видео
Идентификатор : 1
Формат : AVC
Формат/Информация : Advanced Video Codec
Профиль формата : High@L4.1
Параметр CABAC формата : Да
Параметр ReFrames формата : 4 кадра
Идентификатор кодека : V_MPEG4/ISO/AVC
Продолжительность : 1 ч. 53 м.
Битрейт : 9500 Кбит/сек
Ширина : 1920 пикселей
Высота : 800 пикселей
Соотношение сторон : 2,40:1
Режим частоты кадров : Постоянный
Частота кадров : 25,000 кадров/сек
Цветовое пространство : YUV
Субдискретизация насыщенности : 4:2:0
Битовая глубина : 8 бит
Тип развёртки : Прогрессивная
Бит/(Пиксели*Кадры) : 0.247
Размер потока : 7,34 Гбайт (80%)
Библиотека кодирования : x264 core 138 r2358 9e941d1
Настройки программы : cabac=1 / ref=4 / deblock=1:-3:-3 / analyse=0x3:0x113 / me=umh / subme=11 / psy=1 / psy_rd=1.00:0.00 / mixed_ref=1 / me_range=32 / chroma_me=1 / trellis=2 / 8x8dct=1 / cqm=0 / deadzone=21,11 / fast_pskip=1 / chroma_qp_offset=-2 / threads=12 / lookahead_threads=1 / sliced_threads=0 / nr=0 / decimate=1 / interlaced=0 / bluray_compat=0 / constrained_intra=0 / bframes=5 / b_pyramid=2 / b_adapt=1 / b_bias=0 / direct=2 / weightb=1 / open_gop=0 / weightp=2 / keyint=250 / keyint_min=25 / scenecut=40 / intra_refresh=0 / rc_lookahead=40 / rc=2pass / mbtree=1 / bitrate=9500 / ratetol=1.0 / qcomp=0.60 / qpmin=10 / qpmax=51 / qpstep=4 / cplxblur=20.0 / qblur=0.5 / vbv_maxrate=62500 / vbv_bufsize=78125 / nal_hrd=none / ip_ratio=1.40 / aq=1:1.00 / zones=166251,170124,q=40
Язык : English
Default : Да
Forced : Нет

Аудио #1
Идентификатор : 2
Формат : DTS
Формат/Информация : Digital Theater Systems
Режим : 16
Параметр Endianness формата : Big
Идентификатор кодека : A_DTS
Продолжительность : 1 ч. 53 м.
Вид битрейта : Постоянный
Битрейт : 1509 Кбит/сек
Каналы : 6 каналов
Расположение каналов : Front: L C R, Side: L R, LFE
Частота : 48,0 КГц
Битовая глубина : 16 бит
Метод сжатия : С потерями
Размер потока : 1,20 Гбайт (13%)
Язык : Russian
Default : Да
Forced : Нет

Аудио #2
Идентификатор : 3
Формат : AC-3
Формат/Информация : Audio Coding 3
Расширение режима : CM (complete main)
Параметр Endianness формата : Big
Идентификатор кодека : A_AC3
Продолжительность : 1 ч. 53 м.
Вид битрейта : Постоянный
Битрейт : 640 Кбит/сек
Каналы : 6 каналов
Расположение каналов : Front: L C R, Side: L R, LFE
Частота : 48,0 КГц
Битовая глубина : 16 бит
Метод сжатия : С потерями
Размер потока : 519 Мбайт (5%)
Язык : Russian
Default : Нет
Forced : Нет

Меню
00:00:00.000 : en:00:00:00.000
00:06:36.520 : en:00:06:36.520
00:12:34.079 : en:00:12:34.079
00:19:05.680 : en:00:19:05.680
00:31:08.840 : en:00:31:08.840
00:42:14.600 : en:00:42:14.600
00:51:13.560 : en:00:51:13.560
01:00:00.600 : en:01:00:00.600
01:11:12.000 : en:01:11:12.000
01:17:52.760 : en:01:17:52.760
01:23:32.920 : en:01:23:32.920
01:29:19.640 : en:01:29:19.640
01:34:07.320 : en:01:34:07.320
01:38:49.520 : en:01:38:49.520
01:45:49.479 : en:01:45:49.479
Скриншоты



Оригинальное название: Romeo and Juliet
Год выпуска: 2013
Аудио: Русский (AC3, 6 ch, 640 Кбит/с), (DTS, 6 ch, 1510 Кбит/с)
Режиссер: Карло Карлей
О фильме: Верона. Эпоха Раннего Возрождения. Юноша и девушка из враждующих семей влюбляются друг в друга. Рок не дает им быть вместе. Лишь смерть на пике запретной страсти помогает Ромео и Джульетте спасти свою любовь.




Выпущено: Великобритания, Италия, Швейцария, Amber Entertainment, Echo Lake Productions (I), Indiana Production Company
В ролях: Дуглас Бут, Хейли Стайнфелд, Дэмиэн Льюис, Коди Смит-МакФи, Эд Вествик, Пол Джаматти, Томас Арана, Наташа МакЭлхоун, Стеллан Скарсгард, Лесли Мэнвилл

Релиз от: ОценкаНикто ещё не поставил оценку КатегорияЗарубежные фильмы Раздают0 Качают0 Сидер замечен06-06-2019 0:19:13 (9 часов назад) Добавлен18-12-2013 13:13:37 (67 месяцев назад) Размер9.23 GB (9910378475 Bytes)Размер: 9.23 ГБ
Название: Ромео и Джульетта
Продолжительность: 01:53:25

Если у вас возникли проблемы с закачкой Ромео и Джульетта / Romeo and Juliet (2013) BDRip 1080p | Лицензия, перейдите по ссылке - там вы найдете решение своей проблемы.

Категория: Зарубежные фильмы

 

Скачать Ромео и Джульетта / Romeo and Juliet (2013) BDRip 1080p | Лицензия через торрент бесплатно на пк

 

Информация
Посетители, находящиеся в группе Гости, не могут оставлять комментарии к данной публикации.
 
 
Скачать Ромео и Джульетта / Romeo and Juliet (2013) BDRip 1080p | Лицензия через торрент бесплатно на пкCopyright © 2019 .