Скачать Всегда говори «ДА» / Yes Man (2008) BDRip 1080p через торрент бесплатно на пк






Информация о фильме:
Жанр: комедия
Видео: 1920x800, 6630 Kbps, 23.976 fps
О фильме:
Депрессивный главный герой всегда и всем говорил «нет» — например, друзьям, если они зовут куда-то. Но в один прекрасный день он заключает соглашение, по которому всегда должен отвечать «Да» на любое предложение…



Кодек: x264
Аудио #2: AC-3, 6 ch, 640 kbps (Eng)
Оригинальное название: Yes Man
Режиссер: Пейтон Рид
Перевод: Дублированный + Оригинал

boriy Оценка9.5 из 10 (19 голосов, самая низкая оценка - 2, самая высокая - 10) КатегорияЗарубежные фильмы Раздают2 Качают0 Сидер замечен12-06-2019 15:19:11 (52 минуты назад) Добавлен23-05-2013 18:54:38 (74 месяца назад) Размер5.77 GB (6191395773 Bytes)Субтитры: русские (полные, форсированные), английские

Скриншоты MIОбщее
Уникальный идентификатор : 242343927878204126836281119578398494635 (0xB651BE25220FA669BED8DFDA53298FAB)
Полное имя : Всегда говори «ДА».2008.BDRip.1080.Rus.Eng.mkv
Формат : Matroska
Версия формата : Version 2
Размер файла : 5,77 Гбайт
Продолжительность : 1 ч. 44 м.
Общий поток : 7907 Кбит/сек
Название фильма : Всегда говори «ДА».2008
Дата кодирования : UTC 2013-05-23 14:24:25
Программа кодирования : mkvmerge v5.8.0 ('No Sleep / Pillow') built on Sep 2 2012 15:37:04
Библиотека кодирования : libebml v1.2.3 + libmatroska v1.3.0

Видео
Идентификатор : 1
Формат : AVC
Формат/Информация : Advanced Video Codec
Профиль формата : High@L4.1
Параметр CABAC формата : Да
Параметр ReFrames формата : 5 кадров
Идентификатор кодека : V_MPEG4/ISO/AVC
Продолжительность : 1 ч. 44 м.
Битрейт : 6630 Кбит/сек
Ширина : 1920 пикселей
Высота : 800 пикселей
Соотношение сторон : 2,40:1
Режим частоты кадров : Постоянный
Частота кадров : 23,976 кадра/сек
Цветовое пространство : YUV
Субдискретизация насыщенности : 4:2:0
Битовая глубина : 8 бит
Тип развёртки : Прогрессивная
Бит/(Пиксели*Кадры) : 0.180
Размер потока : 4,72 Гбайт (82%)
Заголовок : Rip by Boriy
Библиотека кодирования : x264 core 133 r2334 a3ac64b
Настройки программы : cabac=1 / ref=5 / deblock=1:-3:-3 / analyse=0x3:0x113 / me=umh / subme=10 / psy=1 / psy_rd=1.00:0.10 / mixed_ref=1 / me_range=32 / chroma_me=1 / trellis=2 / 8x8dct=1 / cqm=0 / deadzone=21,11 / fast_pskip=0 / chroma_qp_offset=-2 / threads=12 / lookahead_threads=1 / sliced_threads=0 / nr=0 / decimate=0 / interlaced=0 / bluray_compat=0 / constrained_intra=0 / bframes=5 / b_pyramid=2 / b_adapt=2 / b_bias=0 / direct=3 / weightb=1 / open_gop=0 / weightp=2 / keyint=240 / keyint_min=23 / scenecut=40 / intra_refresh=0 / rc=2pass / mbtree=0 / bitrate=6630 / ratetol=1.0 / qcomp=0.60 / qpmin=0 / qpmax=69 / qpstep=4 / cplxblur=20.0 / qblur=0.5 / ip_ratio=1.40 / pb_ratio=1.30 / aq=1:0.80
Язык : English
Default : Да
Forced : Нет

Аудио #1
Идентификатор : 2
Формат : AC-3
Формат/Информация : Audio Coding 3
Расширение режима : CM (complete main)
Параметр Endianness формата : Big
Идентификатор кодека : A_AC3
Продолжительность : 1 ч. 44 м.
Вид битрейта : Постоянный
Битрейт : 640 Кбит/сек
Каналы : 6 каналов
Расположение каналов : Front: L C R, Side: L R, LFE
Частота : 48,0 КГц
Битовая глубина : 16 бит
Метод сжатия : С потерями
Размер потока : 478 Мбайт (8%)
Заголовок : Дубляж
Язык : Russian
Default : Да
Forced : Нет

Аудио #2
Идентификатор : 3
Формат : AC-3
Формат/Информация : Audio Coding 3
Расширение режима : CM (complete main)
Параметр Endianness формата : Big
Идентификатор кодека : A_AC3
Продолжительность : 1 ч. 44 м.
Вид битрейта : Постоянный
Битрейт : 640 Кбит/сек
Каналы : 6 каналов
Расположение каналов : Front: L C R, Side: L R, LFE
Частота : 48,0 КГц
Битовая глубина : 16 бит
Метод сжатия : С потерями
Размер потока : 478 Мбайт (8%)
Заголовок : Оригинал
Язык : English
Default : Нет
Forced : Нет

Текст #1
Идентификатор : 4
Формат : UTF-8
Идентификатор кодека : S_TEXT/UTF8
Идентификатор кодека/Информация : UTF-8 Plain Text
Заголовок : Forced
Язык : Russian
Default : Да
Forced : Да

Текст #2
Идентификатор : 5
Формат : UTF-8
Идентификатор кодека : S_TEXT/UTF8
Идентификатор кодека/Информация : UTF-8 Plain Text
Заголовок : Full
Язык : Russian
Default : Нет
Forced : Нет

Текст #3
Идентификатор : 6
Формат : UTF-8
Идентификатор кодека : S_TEXT/UTF8
Идентификатор кодека/Информация : UTF-8 Plain Text
Заголовок : Full
Язык : English
Default : Нет
Forced : Нет

Меню
00:00:00.000 : :Chapter 1
00:04:51.374 : :Chapter 2
00:07:44.964 : :Chapter 3
00:13:22.593 : :Chapter 4
00:19:56.945 : :Chapter 5
00:23:30.826 : :Chapter 6
00:27:32.442 : :Chapter 7
00:30:48.638 : :Chapter 8
00:36:00.408 : :Chapter 9
00:38:58.794 : :Chapter 10
00:41:43.667 : :Chapter 11
00:44:38.676 : :Chapter 12
00:51:22.496 : :Chapter 13
00:55:16.604 : :Chapter 14
00:59:25.728 : :Chapter 15
01:02:47.722 : :Chapter 16
01:08:15.758 : :Chapter 17
01:13:52.010 : :Chapter 18
01:18:50.684 : :Chapter 19
01:21:40.854 : :Chapter 20
01:26:08.204 : :Chapter 21
01:28:50.992 : :Chapter 22
01:32:58.239 : :Chapter 23
01:36:04.759 : :Chapter 24
01:36:59.313 : :Chapter 25
01:44:22.965 : :Chapter 26 ЗалилКачество: BDRip 1080p
Продолжительность: 01:44:23
Год выхода: 2008
Аудио #1: AC-3, 6 ch, 640 kbps (Rus)
В главных ролях: Джим Керри, Зои Дешанель, Брэдли Купер, Джон Майкл Хиггинс, Риз Дэрби, Дэнни Мастерсон, Фионнула Флэнаган, Теренс Стэмп, Саша Александр, Молли Симс

Название: Всегда говори «ДА»
Выпущено: США, Австралия

Если у вас возникли проблемы с закачкой Всегда говори «ДА» / Yes Man (2008) BDRip 1080p, перейдите по ссылке - там вы найдете решение своей проблемы.

Категория: Зарубежные фильмы

 

Скачать Всегда говори «ДА» / Yes Man (2008) BDRip 1080p через торрент бесплатно на пк

 

Информация
Посетители, находящиеся в группе Гости, не могут оставлять комментарии к данной публикации.
 
 
Скачать Всегда говори «ДА» / Yes Man (2008) BDRip 1080p через торрент бесплатно на пкCopyright © 2019 .