Скачать Громобой / Thunderbolt / Pik lik foh (1995) BDRip 1080p от MediaClub | P, P2, A через торрент бесплатно на пк






Информация о фильме
Режиссер: Гордон Чан
kaspr Оценка10 из 10 (1 голосов, самая низкая оценка - 10, самая высокая - 10) КатегорияЗарубежные фильмы Раздают1 Качают0 Сидер замечен12-06-2019 16:19:13 (52 минуты назад) Добавлен05-08-2014 10:31:49 (59 месяцев назад) Размер7.47 GB (8020399326 Bytes)Описание: Альфред Танг знает о машинах абсолютно все. Он не только изумительно водит автомобиль, но и способен по одному звуку мотора опознать марку машины, безошибочно определив, какая деталь в механическом организме машины нуждается в замене. Альфред, некогда талантливый и бесстрашный гонщик, теперь работает механиком-экспертом в фирме своего уважаемого отца. Роковой случай сводит Альфреда с эксцентричным и безжалостным преступником по кличке "Кугар". Этот тип - тоже крупный специалист по автомобилям, соединяющий, однако, это пристрастие с ужасной тягой к красиво "поставленным" убийствам. Злодей сразу замечает в Альфреде сильного опытного и непредсказуемого соперника, - словом, лучшего партнера в гонках на жутких скоростях. Чтобы заставить Альфреда играть по своим правилам. Кугар похищает юную сестру героя, предлагая Тангу сразиться с ним на престижном чемпионате в Японии. Отважный Альфред принимает вызов и отправляется спасать сестру... Любым путём он добивается участия гонок в Японии и выходит победителем в честном бою. Автомеханикам посвящается ...



В ролях: Джеки Чан, Анита Юань, Майкл Вонг, Торстен Никел, Юэнь Чор, Ой-Ян Ву, Чунг-Хан Ман, Юдзо Каяма, Кенья Савада, Кен Ло

Аудио #1: Русский (AC3, 6 ch, 448 Кбит/с) / Профессиональный двухголосый
Название: Громобой
Аудио #4: Украинский (AC3, 2 ch, 192 Кбит/с) / Профессиональный двухголосый (ICTV)
Продолжительность: 01:45:50
Качество: BDRip 1080p
Видео: MPEG-4 AVC, 8500 Кбит/с, 1916x800, 25.000 кадр/с
Аудио #6: Английский (AC3, 2 ch, 192 Кбит/с)
Выпущено: Гонконг/ Golden Harvest Company Ltd., Paragon Films Ltd.
Жанр: Боевик, драма
Аудио #7: Китайский (AC3, 2 ch, 192 Кбит/с)
Оригинальное название: Thunderbolt (Pik lik foh)
Аудио #5: Украинский (AC3, 2 ch, 192 Кбит/с) / Профессиональный двухголосый (1+1)
Аудио #3: Русский (AC3, 2 ch, 192 Кбит/с) / Авторский одноголосый (Гаврилов)
Год выпуска: 1995
Перевод: Профессиональный многоголосый, профессиональный двухголосый, авторский

Аудио #2: Русский (AC3, 2 ch, 192 Кбит/с) / Профессиональный многоголосый (Селена Интернешнл)
Релиз: | ЗалилСубтитры: Русские, английские

Скриншоты
MI*********************************************************************************************************
x264 [info]: frame I:1403 Avg QP:16.14 size:165949
x264 [info]: frame P:55660 Avg QP:18.57 size: 69201
x264 [info]: frame B:101703 Avg QP:20.80 size: 26182
x264 [info]: consecutive B-frames: 9.9% 12.2% 13.9% 52.7% 8.1% 2.9% 0.2% 0.0% 0.0%
*********************************************************************************************************
Общее
Уникальный идентификатор : 198880314377879466807697202549111523637 (0x959EF48D4AD90DF0B7DB803A26C60935)
Полное имя : D:Mои раздачиGromoboy.1995.BDRip.1080p-MediaClub.mkv
Формат : Matroska
Версия формата : Version 4 / Version 2
Размер файла : 7,47 Гбайт
Продолжительность : 1 ч. 45 м.
Общий поток : 10,1 Мбит/сек
Название фильма : -=MediaClub-kaspr=-
Дата кодирования : UTC 2014-08-05 05:38:50
Программа кодирования : mkvmerge v6.9.1 ('Blue Panther') 64bit built on Apr 18 2014 18:23:38
Библиотека кодирования : libebml v1.3.0 + libmatroska v1.4.1

Видео
Идентификатор : 1
Формат : AVC
Формат/Информация : Advanced Video Codec
Профиль формата : High@L4.1
Параметр CABAC формата : Да
Параметр ReFrames формата : 5 кадров
Идентификатор кодека : V_MPEG4/ISO/AVC
Продолжительность : 1 ч. 45 м.
Битрейт : 8500 Кбит/сек
Ширина : 1916 пикселей
Высота : 800 пикселей
Соотношение сторон : 2,40:1
Режим частоты кадров : Постоянный
Частота кадров : 25,000 кадров/сек
Цветовое пространство : YUV
Субдискретизация насыщенности : 4:2:0
Битовая глубина : 8 бит
Тип развёртки : Прогрессивная
Бит/(Пиксели*Кадры) : 0.222
Размер потока : 6,14 Гбайт (82%)
Заголовок : -=MediaClub-kaspr=-
Библиотека кодирования : x264 core 142 r2431+42 c69a006 tMod [8-bit@4:2:0 X86_64]
Настройки программы : cabac=1 / ref=5 / deblock=1:-3:-3 / analyse=0x3:0x113 / me=umh / subme=11 / psy=1 / fade_compensate=0.00 / psy_rd=1.00:0.20 / mixed_ref=1 / me_range=32 / chroma_me=1 / trellis=2 / 8x8dct=1 / cqm=0 / deadzone=21,11 / fast_pskip=0 / chroma_qp_offset=-3 / threads=12 / lookahead_threads=2 / sliced_threads=0 / nr=0 / decimate=0 / interlaced=0 / bluray_compat=0 / constrained_intra=0 / fgo=0 / bframes=8 / b_pyramid=2 / b_adapt=2 / b_bias=0 / direct=3 / weightb=1 / open_gop=0 / weightp=2 / keyint=250 / keyint_min=25 / scenecut=40 / intra_refresh=0 / rc=2pass / mbtree=0 / bitrate=8500 / ratetol=1.0 / qcomp=0.60 / qpmin=0:0:0 / qpmax=69:69:69 / qpstep=4 / cplxblur=20.0 / qblur=0.5 / ip_ratio=1.40 / pb_ratio=1.30 / aq=4:0.80 / aq-sensitivity=10.00 / aq-factor=1.00:1.00:1.00 / aq2=0 / aq3=0
Default : Да
Forced : Нет

Аудио #1
Идентификатор : 2
Формат : AC-3
Формат/Информация : Audio Coding 3
Расширение режима : CM (complete main)
Параметр Endianness формата : Big
Идентификатор кодека : A_AC3
Продолжительность : 1 ч. 45 м.
Вид битрейта : Постоянный
Битрейт : 448 Кбит/сек
Каналы : 6 каналов
Расположение каналов : Front: L C R, Side: L R, LFE
Частота : 48,0 КГц
Битовая глубина : 16 бит
Метод сжатия : С потерями
Размер потока : 339 Мбайт (4%)
Заголовок : DVO
Язык : Russian
Default : Да
Forced : Нет

Аудио #2
Идентификатор : 3
Формат : AC-3
Формат/Информация : Audio Coding 3
Расширение режима : CM (complete main)
Параметр Endianness формата : Big
Идентификатор кодека : A_AC3
Продолжительность : 1 ч. 45 м.
Вид битрейта : Постоянный
Битрейт : 192 Кбит/сек
Каналы : 2 канала
Расположение каналов : Front: L R
Частота : 48,0 КГц
Битовая глубина : 16 бит
Метод сжатия : С потерями
Размер потока : 145 Мбайт (2%)
Заголовок : MVO
Язык : Russian
Default : Нет
Forced : Нет

Аудио #3
Идентификатор : 4
Формат : AC-3
Формат/Информация : Audio Coding 3
Расширение режима : CM (complete main)
Параметр Endianness формата : Big
Идентификатор кодека : A_AC3
Продолжительность : 1 ч. 45 м.
Вид битрейта : Постоянный
Битрейт : 192 Кбит/сек
Каналы : 2 канала
Расположение каналов : Front: L R
Частота : 48,0 КГц
Битовая глубина : 16 бит
Метод сжатия : С потерями
Размер потока : 145 Мбайт (2%)
Заголовок : AVO (Гаврилов)
Язык : Russian
Default : Нет
Forced : Нет

Аудио #4
Идентификатор : 5
Формат : AC-3
Формат/Информация : Audio Coding 3
Расширение режима : CM (complete main)
Параметр Endianness формата : Big
Идентификатор кодека : A_AC3
Продолжительность : 1 ч. 45 м.
Вид битрейта : Постоянный
Битрейт : 192 Кбит/сек
Каналы : 2 канала
Расположение каналов : Front: L R
Частота : 48,0 КГц
Битовая глубина : 16 бит
Метод сжатия : С потерями
Размер потока : 145 Мбайт (2%)
Заголовок : DVO (ICTV)
Язык : Ukrainian
Default : Нет
Forced : Нет

Аудио #5
Идентификатор : 6
Формат : AC-3
Формат/Информация : Audio Coding 3
Расширение режима : CM (complete main)
Параметр Endianness формата : Big
Идентификатор кодека : A_AC3
Продолжительность : 1 ч. 45 м.
Вид битрейта : Постоянный
Битрейт : 192 Кбит/сек
Каналы : 2 канала
Расположение каналов : Front: L R
Частота : 48,0 КГц
Битовая глубина : 16 бит
Метод сжатия : С потерями
Размер потока : 145 Мбайт (2%)
Заголовок : DVO (1+1)
Язык : Ukrainian
Default : Нет
Forced : Нет

Аудио #6
Идентификатор : 7
Формат : AC-3
Формат/Информация : Audio Coding 3
Профиль формата : Dolby Digital
Расширение режима : CM (complete main)
Параметр Endianness формата : Big
Идентификатор кодека : A_AC3
Продолжительность : 1 ч. 45 м.
Вид битрейта : Постоянный
Битрейт : 192 Кбит/сек
Каналы : 2 канала
Расположение каналов : Front: L R
Частота : 48,0 КГц
Битовая глубина : 16 бит
Метод сжатия : С потерями
Размер потока : 145 Мбайт (2%)
Язык : English
Default : Нет
Forced : Нет

Аудио #7
Идентификатор : 8
Формат : AC-3
Формат/Информация : Audio Coding 3
Профиль формата : Dolby Digital
Расширение режима : CM (complete main)
Параметр Endianness формата : Big
Идентификатор кодека : A_AC3
Продолжительность : 1 ч. 45 м.
Вид битрейта : Постоянный
Битрейт : 192 Кбит/сек
Каналы : 2 канала
Расположение каналов : Front: L R
Частота : 48,0 КГц
Битовая глубина : 16 бит
Метод сжатия : С потерями
Размер потока : 145 Мбайт (2%)
Язык : Chinese
Default : Нет
Forced : Нет

Текст #1
Идентификатор : 9
Формат : UTF-8
Идентификатор кодека : S_TEXT/UTF8
Идентификатор кодека/Информация : UTF-8 Plain Text
Язык : Russian
Default : Нет
Forced : Нет

Текст #2
Идентификатор : 10
Формат : UTF-8
Идентификатор кодека : S_TEXT/UTF8
Идентификатор кодека/Информация : UTF-8 Plain Text
Язык : English
Default : Нет
Forced : Нет

Меню
00:00:00.000 : en:Chapter 01
00:04:25.000 : en:Chapter 02
00:06:55.000 : en:Chapter 03
00:10:51.000 : en:Chapter 04
00:14:12.000 : en:Chapter 05
00:18:59.000 : en:Chapter 06
00:26:06.000 : en:Chapter 07
00:30:04.000 : en:Chapter 08
00:34:55.000 : en:Chapter 09
00:37:40.000 : en:Chapter 10
00:42:03.000 : en:Chapter 11
00:51:07.000 : en:Chapter 12
00:56:25.000 : en:Chapter 13
01:01:23.000 : en:Chapter 14
01:05:30.000 : en:Chapter 15
01:15:12.000 : en:Chapter 16
01:19:18.000 : en:Chapter 17
01:23:13.000 : en:Chapter 18
01:26:30.000 : en:Chapter 19
01:36:03.000 : en:Chapter 20
01:41:20.000 : en:Chapter 21


Если у вас возникли проблемы с закачкой Громобой / Thunderbolt / Pik lik foh (1995) BDRip 1080p от MediaClub | P, P2, A, перейдите по ссылке - там вы найдете решение своей проблемы.

Категория: Зарубежные фильмы

 

Скачать Громобой / Thunderbolt / Pik lik foh (1995) BDRip 1080p от MediaClub | P, P2, A через торрент бесплатно на пк

 

Информация
Посетители, находящиеся в группе Гости, не могут оставлять комментарии к данной публикации.
 
 
Скачать Громобой / Thunderbolt / Pik lik foh (1995) BDRip 1080p от MediaClub | P, P2, A через торрент бесплатно на пкCopyright © 2019 .