Скачать Взрослая дочь, или Тест на... (2010) DVDRip от ELmusic через торрент бесплатно на пк






В ролях: Дмитрий Марьянов, Илья Шакунов, Евгения Хиривская, Олеся Судзиловская, Гела Месхи, Сергей Горобченко, Александр Константинов, Нелли Неведина, Олег Тактаров, Инна Капнулина

Видео: 640x272 (2.35:1), 25 fps, XviD build 50 ~857 kbps avg, 0.20 bit/pixel
Видео кодек: XviD(AVI)
Аудио: 48 kHz, AC3 Dolby Digital, 2/0 (L,R) ch, ~192 kbps

Сэмплhttp://multi-up.com/322607

Скриншоты

Полноразмерные скриншоты








MediaInfoGeneral
Complete name : ***vzroslaja.doch.ili.test.na.2010.dvdrip.ELmusic.avi
Format : AVI
Format/Info : Audio Video Interleave
File size : 709 MiB
Duration : 1h 33mn
Overall bit rate : 1 060 Kbps
Writing application : VirtualDubMod 1.5.10.2 (build 2540/release)
Writing library : VirtualDubMod build 2540/release

Video
ID : 0
Format : MPEG-4 Visual
Format profile : Advanced Simple@L5
Format settings, BVOP : Yes
Format settings, QPel : No
Format settings, GMC : 3 warppoints
Format settings, Matrix : Default (H.263)
Codec ID : XVID
Codec ID/Hint : XviD
Duration : 1h 33mn
Bit rate : 858 Kbps
Width : 640 pixels
Height : 272 pixels
Display aspect ratio : 2.35:1
Frame rate : 25.000 fps
Color space : YUV
Chroma subsampling : 4:2:0
Bit depth : 8 bits
Scan type : Progressive
Bits/(Pixel*Frame) : 0.197
Stream size : 574 MiB (81%)
Writing library : XviD 1.2.1 (UTC 2008-12-04)

Audio
ID : 1
Format : AC-3
Format/Info : Audio Coding 3
Mode extension : CM (complete main)
Codec ID : 2000
Duration : 1h 33mn
Bit rate mode : Constant
Bit rate : 192 Kbps
Channel(s) : 2 channels
Channel positions : Front: L R
Sampling rate : 48.0 KHz
Bit depth : 16 bits
Stream size : 128 MiB (18%)
Alignment : Split accross interleaves
Interleave, duration : 40 ms (1.00 video frame)
Interleave, preload duration : 500 ms ЗалилПродолжительность: 01:33:34.040 (140351 frames)
Страна: Россия
ELmusic Оценка4.3 из 10 (3 голосов, самая низкая оценка - 1, самая высокая - 8) КатегорияНаши фильмы Раздают0 Качают1 Сидер замечен19-05-2019 19:19:10 (24 дня назад) Добавлен20-08-2010 6:32:51 (107 месяцев назад) Размер709.25 MB (743700480 Bytes)Русские субтитры: нет

Качество: DVDRip
Режиссер: Мгер Мкртчян

Перевод: Не требуется
Год выпуска: 2010
Описание: Ему 37, ей — 17. Он еще молод и хорош собой, флиртует с ее однокурсницами, вызывая у дочери бурное негодование. Она приводит в дом своих поклонников, которые доводят отца до бешенства. И все же, отец и дочь любят и понимают друг друга. Но в жизни их маленькой семьи появляется неожиданный персонаж. Что делает отец, когда дочь влюблена в его партнера по бизнесу?


Жанр: комедия, мелодрама

Если у вас возникли проблемы с закачкой Взрослая дочь, или Тест на... (2010) DVDRip от ELmusic, перейдите по ссылке - там вы найдете решение своей проблемы.

Категория: Наши фильмы

 

Скачать Взрослая дочь, или Тест на... (2010) DVDRip от ELmusic через торрент бесплатно на пк

 

Информация
Посетители, находящиеся в группе Гости, не могут оставлять комментарии к данной публикации.
 
 
Скачать Взрослая дочь, или Тест на... (2010) DVDRip от ELmusic через торрент бесплатно на пкCopyright © 2019 .