Скачать Викинги / Vikings [s02] (2014) WEB-DLRip-AVC от ExKinoRay | NewStudio через торрент бесплатно на пк






Информация о фильме
Автор релиза: ЗалилНазвание: Викинги
Релиз от:

О фильме: История повествует о приключениях величайшего героя своего времени – Рагнара Лодброка. В сериале показан Рагнар со своим племенем братьев-викингов и его семьёй в процессе становления королём всех племён викингов. Рагнар – бесстрашный воин, и религиозный викинг, который объединяет все племена и распространяет среди них поклонение скандинавским богам. Согласно легенде, он – прямой потомок Одина, бога войны и воителей.



Выпущено: Ирландия, Канада, Irish Film Board, Take 5 Productions, World 2000 Entertainment
Год выпуска: 2014
Кодек: H264
Перевод: профессиональный (многоголосый, закадровый) - NewStudio

Enigma2010 Оценка10 из 10 (4 голосов, самая низкая оценка - 10, самая высокая - 10) КатегорияЗарубежные сериалы Раздают0 Качают1 Сидер замечен01-06-2019 19:19:12 (11 день назад) Добавлен03-05-2014 20:54:43 (62 месяца назад) Размер8.54 GB (9167440679 Bytes)Звук: Русский, английский (AC3, 6 ch, 384 Кбит/с)

Раздача ведется путем добавления новых серий Когда раздача ведётся путём добавления новых серий, при каждом добавлении создётся новый торрент. Чтобы начать докачку новой серии, пользователям необходимо сделать следующее:
(1) остановить скачивание,
(2) удалить старый торрент у себя из клиента (старые серии удалять не надо),
(3) скачать новый торрент и запустить его у себя в клиенте вместо старого, при этом указать клиенту путь в старую папку, куда и должно происходить скачивание новых серий.
Ваш клиент при этом должен произвести хеширование (проверку) старой папки (если не производит сам - помогите ему сделать это), и будет докачивать только те серии, которых у вас ещё нет. Старые серии при этом не удаляются, а продолжают раздаваться!
Eсли вы уже удалили старые серии, то предотвратить повторную закачку старых серий можно, отжав галочку в соответсвующих местах при запуске нового торрента. По возможности, желательно не удалять старые серии как можно дольше, чтобы релизёр не столько продолжал раздавать старые серии, а смог сконцентрироваться на новых.
MIGeneral
Unique ID : 197127704130960380433580077222784890546 (0x944D6A31FF8BCFBEAA8D403D4C0776B2)
Complete name : C:Vikings.S02Vikings.s02e01.WEBDLRip.AVC.ExKinoRay.NewStudio.TV.mkv
Format : Matroska
Format version : Version 2
File size : 870 MiB
Duration : 44mn 8s
Overall bit rate : 2 755 Kbps
Movie name : Vikings from ExKinoRay
Encoded date : UTC 2014-02-28 22:26:05
Writing application : mkvmerge v4.9.1 ('Ich will') built on Jul 11 2011 23:53:15
Writing library : libebml v1.2.1 + libmatroska v1.1.1

Video
ID : 1
Format : AVC
Format/Info : Advanced Video Codec
Format profile : High@L4.1
Format settings, CABAC : Yes
Format settings, ReFrames : 8 frames
Codec ID : V_MPEG4/ISO/AVC
Duration : 44mn 8s
Bit rate : 1 985 Kbps
Width : 1 024 pixels
Height : 576 pixels
Display aspect ratio : 16:9
Frame rate mode : Constant
Frame rate : 23.976 fps
Color space : YUV
Chroma subsampling : 4:2:0
Bit depth : 8 bits
Scan type : Progressive
Bits/(Pixel*Frame) : 0.140
Stream size : 610 MiB (70%)
Title : Enigma
Writing library : x264 core 116 r2044 392e762
Encoding settings : cabac=1 / ref=8 / deblock=1:-2:-1 / analyse=0x3:0x113 / me=umh / subme=9 / psy=1 / psy_rd=1.00:0.20 / mixed_ref=1 / me_range=32 / chroma_me=1 / trellis=2 / 8x8dct=1 / cqm=0 / deadzone=21,11 / fast_pskip=0 / chroma_qp_offset=-3 / threads=12 / sliced_threads=0 / nr=0 / decimate=0 / interlaced=0 / bluray_compat=0 / constrained_intra=0 / bframes=8 / b_pyramid=2 / b_adapt=2 / b_bias=0 / direct=3 / weightb=1 / open_gop=0 / weightp=2 / keyint=240 / keyint_min=23 / scenecut=40 / intra_refresh=0 / rc_lookahead=50 / rc=2pass / mbtree=1 / bitrate=1985 / ratetol=1.0 / qcomp=0.60 / qpmin=0 / qpmax=69 / qpstep=4 / cplxblur=20.0 / qblur=0.5 / ip_ratio=1.40 / aq=1:1.00
Default : Yes
Forced : No

Audio #1
ID : 2
Format : AC-3
Format/Info : Audio Coding 3
Mode extension : CM (complete main)
Format settings, Endianness : Big
Codec ID : A_AC3
Duration : 44mn 8s
Bit rate mode : Constant
Bit rate : 384 Kbps
Channel(s) : 6 channels
Channel positions : Front: L C R, Side: L R, LFE
Sampling rate : 48.0 KHz
Bit depth : 16 bits
Compression mode : Lossy
Stream size : 121 MiB (14%)
Title : NewStudio
Language : Russian
Default : Yes
Forced : No

Audio #2
ID : 3
Format : AC-3
Format/Info : Audio Coding 3
Mode extension : CM (complete main)
Format settings, Endianness : Big
Codec ID : A_AC3
Duration : 44mn 8s
Bit rate mode : Constant
Bit rate : 384 Kbps
Channel(s) : 6 channels
Channel positions : Front: L C R, Side: L R, LFE
Sampling rate : 48.0 KHz
Bit depth : 16 bits
Compression mode : Lossy
Stream size : 121 MiB (14%)
Language : English
Default : No
Forced : No


Скриншоты




Продолжительность: 10 x ~ 00:44:00
Жанр: Историческая драма, исторические приключения, боевик, викинги
Оригинальное название: Vikings
Видео: MPEG-4 AVC, ~ 1985 Кбит/с, 1024x576
В ролях: Трэвис Фиммел, Клайв Стэнден, Кэтрин Уинник, Гэбриел Бирн, Джессалин Гилсиг, Густаф Скарсгард, Джефферсон Холл, Джордж Благден, Тадж Мерфи, Диармэйд Мурта

Режиссер: Киаран Доннелли, Йохан Ренк, Кен Джиротти
Качество: WEB-DLRip (AVC)

Если у вас возникли проблемы с закачкой Викинги / Vikings [s02] (2014) WEB-DLRip-AVC от ExKinoRay | NewStudio, перейдите по ссылке - там вы найдете решение своей проблемы.

Категория: Зарубежные сериалы

 

Скачать Викинги / Vikings [s02] (2014) WEB-DLRip-AVC от ExKinoRay | NewStudio через торрент бесплатно на пк

 

Информация
Посетители, находящиеся в группе Гости, не могут оставлять комментарии к данной публикации.
 
 
Скачать Викинги / Vikings [s02] (2014) WEB-DLRip-AVC от ExKinoRay | NewStudio через торрент бесплатно на пкCopyright © 2019 .