Скачать Они сражались за Родину (1975) HDTVRip-AVC от New-Team | полная версия через торрент бесплатно на пк





Cубтитры: нет

HDTV 1080i
Режиссер: Сергей Бондарчук

Оригинальная аудиодорожка: русский
Исходник:Страна: СССР
В ролях: Василий Шукшин (озвучание - Игорь Ефимов), Вячеслав Тихонов, Сергей Бондарчук, Георгий Бурков, Юрий Никулин, Иван Лапиков, Николай Губенко, Андрей Ростоцкий, Николай Волков, Николай Шутько, Евгений Самойлов, Нонна Мордюкова, Иннокентий Смоктуновский, Ангелина Степанова, Ирина Скобцева, Татьяна Божок, Лидия Федосеева-Шукшина (озвучание - Наталья Гундарева), Даниил Ильченко, Алексей Ванин, Николай Горлов, Геннадий Сафронов, Борис Никифоров, Анатолий Переверзев, Виталий Леонов, Михаил Чигарев, Станислав Бородокин, Леонид Трутнев, Пётр Меркурьев, Алексей Коняшин, Владимир Мышкин, Юнус Юсупов, Хашим Рахимов, Ермахмад Аралев, Александр Безыментов, Игорь Кузнецов, Виктор Волков, Коля Ефремов, Андрей Попов (текст за кадром)

Производство: Мосфильм
Тип релиза:AVPStudio ОценкаНикто ещё не поставил оценку КатегорияНаши фильмы Раздают1 Качают0 Сидер замечен12-06-2019 18:19:12 (52 минуты назад) Добавлен07-09-2013 21:14:25 (70 месяцев назад) Размер2.19 GB (2346242938 Bytes)Жанр: драма, военный, история
Год выпуска: 1975
Продолжительность: 02:30:28

Видео: 896x576 (1,556:1), 25 fps, H264 ~ 1885 kbps avg, 0.146 bit/pixel
Перевод: не требуется
Описание: Июль 1942 года, Великая Отечественная война. На подступах к Сталинграду обескровленные, измотанные советские войска ведут тяжелые оборонительные бои, неся огромные потери. Небольшое стрелковое подразделение под командованием капитана Сумскова получило приказ: под огнём вражеской авиации и артиллерии обеспечить переправу через Дон советских воинских частей. На дороге - широкие следы танковых гусениц, чётко отпечатанные в серой пыли. А по сторонам - словно вымершая от зноя степь: устало полёгшие травы, тускло блестящие солончаки, голубое трепетное марево над дальними курганами. Четыре дня стояли насмерть у степного хутора солдаты - Стрельцов, Лопахин, Звягинцев - люди мирных профессий, которых война заставила надеть шинели...



Контейнер: MKV

Аудио: 48 kHz, Dolby AC3 2.0, 192 kbps
MediaInfo
Общее
Полное имя : Oni.srazhalis.za.Rodinu.1975.HDTVRip-AVC1_[Youtracker]_by_AVP Studio.mkv
Формат : Matroska
Версия формата : Version 2
Размер файла : 2,19 Гбайт
Продолжительность : 2 ч. 30 м.
Общий поток : 2079 Кбит/сек
Дата кодирования : UTC 2013-09-07 16:47:29
Программа кодирования : mkvmerge v5.0.1 ('Es ist Sommer') built on Nov 6 2011 16:23:40
Библиотека кодирования : libebml v1.2.2 + libmatroska v1.3.0

Видео
Идентификатор : 1
Формат : AVC
Формат/Информация : Advanced Video Codec
Профиль формата : High@L4.1
Параметр CABAC формата : Да
Параметр ReFrames формата : 10 кадров
Идентификатор кодека : V_MPEG4/ISO/AVC
Продолжительность : 2 ч. 30 м.
Битрейт : 1885 Кбит/сек
Ширина : 896 пикселей
Высота : 576 пикселей
Соотношение сторон : 1,556
Частота кадров : 25,000 кадров/сек
Цветовое пространство : YUV
Субдискретизация насыщенности : 4:2:0
Битовая глубина : 8 бит
Тип развёртки : Прогрессивная
Бит/(Пиксели*Кадры) : 0.146
Размер потока : 1,94 Гбайт (89%)
Библиотека кодирования : x264 core 130 r2273 b3065e6
Настройки программы : cabac=1 / ref=10 / deblock=1:-3:-2 / analyse=0x3:0x113 / me=umh / subme=9 / psy=1 / psy_rd=1.00:0.15 / mixed_ref=1 / me_range=32 / chroma_me=1 / trellis=1 / 8x8dct=1 / cqm=0 / deadzone=21,11 / fast_pskip=1 / chroma_qp_offset=-3 / threads=3 / lookahead_threads=1 / sliced_threads=0 / nr=0 / decimate=1 / interlaced=0 / bluray_compat=0 / constrained_intra=0 / bframes=10 / b_pyramid=2 / b_adapt=1 / b_bias=0 / direct=3 / weightb=1 / open_gop=0 / weightp=2 / keyint=250 / keyint_min=25 / scenecut=40 / intra_refresh=0 / rc_lookahead=60 / rc=2pass / mbtree=1 / bitrate=1885 / ratetol=1.0 / qcomp=0.60 / qpmin=0 / qpmax=69 / qpstep=4 / cplxblur=20.0 / qblur=0.5 / ip_ratio=1.40 / aq=1:1.00
Default : Да
Forced : Нет

Аудио
Идентификатор : 2
Формат : AC-3
Формат/Информация : Audio Coding 3
Расширение режима : CM (complete main)
Идентификатор кодека : A_AC3
Продолжительность : 2 ч. 30 м.
Вид битрейта : Постоянный
Битрейт : 192 Кбит/сек
Каналы : 2 канала
Расположение каналов : Front: L R
Частота : 48,0 КГц
Битовая глубина : 16 бит
Метод сжатия : С потерями
Размер потока : 207 Мбайт (9%)
Default : Да
Forced : Нет

Скриншоты

ЗалилHDTVRip-AVC

Если у вас возникли проблемы с закачкой Они сражались за Родину (1975) HDTVRip-AVC от New-Team | полная версия, перейдите по ссылке - там вы найдете решение своей проблемы.

Категория: Наши фильмы

 

Скачать Они сражались за Родину (1975) HDTVRip-AVC от New-Team | полная версия через торрент бесплатно на пк

 

Информация
Посетители, находящиеся в группе Гости, не могут оставлять комментарии к данной публикации.
 
 
Скачать Они сражались за Родину (1975) HDTVRip-AVC от New-Team | полная версия через торрент бесплатно на пкCopyright © 2019 .