Скачать Лично известен (1957) DVDRip от New-Team через торрент бесплатно на пк





Об актёрах подробней

Не требуется
Видео: 688x512 (4:3), 25 fps, XviD ~ 1870 kbps avg, 0.212 bit/pixel
Cубтитры: нет
Продолжительность: 01:40:53

Режиссер: Эразм Карамян, Степан Кеворков

Формат видео: AVI

Оригинальная аудиодорожка: русский

AVPStudio ОценкаНикто ещё не поставил оценку КатегорияНаши фильмы Раздают1 Качают0 Сидер замечен08-06-2019 9:19:11 (4 дня назад) Добавлен29-03-2017 10:41:52 (27 месяцев назад) Размер1.46 GB (1567326208 Bytes)Перевод:В ролях:
Гурген Тонунц, Борис Смирнов, Мария Пастухова, Медея Чахава, Сергей Столяров, Жанна Овнатанян, Артём Карапетян, Борис Свобода, Гурген Ген, Вагарш Вагаршян, Давид Малян, Галина Супрунова, Вахтанг Пирцхалава, Афрасияб Мамедов, Ваче Багратуни, Акакий (Како) Кванталиани, Пётр Малек...
Источник:DVD9 R5
Описание:
Первый фильм кинотрилогии ("Лично известен", "Чрезвычайное поручение", "Последний подвиг Камо") о революционере-большевике Семёне Аршаковиче Тер-Петросяне, известном под партийным псевдонимом Камо (1882-1922). "Художник революции" - так называл Камо писатель Максим Горький. За его плечами было двадцать лет подпольной работы, шесть арестов, четыре смертных приговора. Он жил и рисковал жизнью "во имя мировой революции". О смелости и изобретательности бесстрашного революционера ходили легенды, благодаря ему выполнялись самые невероятные задания...



Страна: СССР
Качество видео:Жанр: боевик, биография, приключения
DVDRip
Раздача от:
MediaInfo
Общее
Полное имя : Lichno.izvesten.1957.DVDRip_[New-team]_by_AVP_Studio.avi
Формат : AVI
Формат/Информация : Audio Video Interleave
Размер файла : 1,46 Гбайт
Продолжительность : 1 ч. 40 м.
Общий поток : 2072 Кбит/сек
Программа кодирования : VirtualDubMod 1.5.10.3 | www.virtualdub-fr.org || (build 2550/release)
Библиотека кодирования : VirtualDubMod build 2550/release

Видео
Идентификатор : 0
Формат : MPEG-4 Visual
Профиль формата : Advanced Simple@L5
Параметр BVOP формата : 1
Параметр QPel формата : Нет
Параметр GMC формата : Без точки перехода
Параметр матрицы формата : Выборочная
Идентификатор кодека : XVID
Идентификатор кодека/Подсказка : XviD
Продолжительность : 1 ч. 40 м.
Битрейт : 1870 Кбит/сек
Ширина : 688 пикселей
Высота : 512 пикселей
Соотношение сторон : 4:3
Частота кадров : 25,000 кадров/сек
Цветовое пространство : YUV
Субдискретизация насыщенности : 4:2:0
Битовая глубина : 8 бит
Тип развёртки : Прогрессивная
Метод сжатия : С потерями
Бит/(Пиксели*Кадры) : 0.212
Размер потока : 1,32 Гбайт (90%)
Библиотека кодирования : XviD 73

Аудио
Идентификатор : 1
Формат : AC-3
Формат/Информация : Audio Coding 3
Параметр Endianness формата : Big
Идентификатор кодека : 2000
Продолжительность : 1 ч. 40 м.
Вид битрейта : Постоянный
Битрейт : 192 Кбит/сек
Каналы : 2 канала
Расположение каналов : Front: L R
Частота : 48,0 КГц
Частота кадров : 31,250 кадров/сек (1536 spf)
Битовая глубина : 16 бит
Метод сжатия : С потерями
Размер потока : 139 Мбайт (9%)
Выравнивание : Разделение по промежуткам
Продолжительность промежутка : 40 мс. (1,00 видеокадр)
Время предзагрузки промежутка : 500 мс

Скриншоты

ЗалилАудио: 48 kHz, Dolby Digital AC3 2.0, 192 kbps

Год выпуска: 1957
Производство: Арменфильм

Если у вас возникли проблемы с закачкой Лично известен (1957) DVDRip от New-Team, перейдите по ссылке - там вы найдете решение своей проблемы.

Категория: Наши фильмы

 

Скачать Лично известен (1957) DVDRip от New-Team через торрент бесплатно на пк

 

Информация
Посетители, находящиеся в группе Гости, не могут оставлять комментарии к данной публикации.
 
 
Скачать Лично известен (1957) DVDRip от New-Team через торрент бесплатно на пкCopyright © 2019 .