Скачать Норман: Умеренный взлет и трагическое падение нью-йоркского посредника / Norman: The Moderate Rise and Tragic Fall of a New York Fixer (2016) BDRip 720p | iTunes через торрент бесплатно на пк






Информация о фильме
Название: Норман: Умеренный взлет и трагическое падение нью-йоркского посредника
Студия: Blackbird, Cold Iron Pictures, Movie Plus productions
Звук:
Аудио 1: AC3, 6 ch, 384 kbps - Русский
Аудио 2: DTS, 6 ch, 1509 Kbps - Английский
walledoll ОценкаНикто ещё не поставил оценку КатегорияЗарубежные фильмы Раздают4 Качают0 Сидер замечен11-07-2019 21:19:14 (52 минуты назад) Добавлен11-09-2017 16:31:11 (22 месяца назад) Размер6.36 GB (6834046143 Bytes)Перевод: Многоголосый закадровый (iTunes)

Продолжительность: 01:58:06
Семпл
MediainfoОбщее
Уникальный идентификатор : 246132343214887583669758937087564264333 (0xB92B5D7129A2C1A6B3EC48038CD7338D)
Полное имя : Norman.2016.BDRip.720p.mkv
Формат : Matroska
Версия формата : Version 2
Размер файла : 6,36 Гбайт
Продолжительность : 1 ч. 58 м.
Общий поток : 7715 Кбит/сек
Название фильма : Norman.2016.720p
Дата кодирования : UTC 2017-09-11 11:15:23
Программа кодирования : mkvmerge v4.0.0 ('The Stars were mine') сборка от Jun 6 2010 16:18:42
Библиотека кодирования : libebml v1.0.0 + libmatroska v1.0.0

Видео
Идентификатор : 1
Формат : AVC
Формат/Информация : Advanced Video Codec
Профиль формата : High@L4.1
Параметр CABAC формата : Да
Параметр RefFrames формата : 9 кадров
Идентификатор кодека : V_MPEG4/ISO/AVC
Продолжительность : 1 ч. 58 м.
Битрейт : 5820 Кбит/сек
Ширина : 1280 пикселей
Высота : 688 пикселей
Соотношение сторон : 1,85:1
Режим частоты кадров : Постоянный
Частота кадров : 23,976 (24000/1001) кадра/сек
Цветовое пространство : YUV
Субдискретизация насыщенности : 4:2:0
Битовая глубина : 8 бит
Тип развёртки : Прогрессивная
Бит/(Пиксели*Кадры) : 0.276
Размер потока : 4,68 Гбайт (73%)
Библиотека кодирования : x264 core 142 r2431+42 c69a006 tMod [8-bit@all X86_64]
Настройки программы : cabac=1 / ref=9 / deblock=1:-3:-3 / analyse=0x3:0x133 / me=umh / subme=11 / psy=1 / fade_compensate=0.00 / psy_rd=1.05:0.15 / mixed_ref=1 / me_range=48 / chroma_me=1 / trellis=2 / 8x8dct=1 / cqm=0 / deadzone=21,11 / fast_pskip=1 / chroma_qp_offset=-3 / threads=16 / lookahead_threads=2 / sliced_threads=0 / nr=0 / decimate=0 / interlaced=0 / bluray_compat=0 / constrained_intra=0 / fgo=0 / bframes=8 / b_pyramid=2 / b_adapt=2 / b_bias=0 / direct=3 / weightb=1 / open_gop=0 / weightp=2 / keyint=240 / keyint_min=23 / scenecut=40 / intra_refresh=0 / rc_lookahead=60 / rc=2pass / mbtree=1 / bitrate=5820 / ratetol=1.0 / qcomp=0.70 / qpmin=0:0:0 / qpmax=69:69:69 / qpstep=4 / cplxblur=20.0 / qblur=0.5 / vbv_maxrate=50000 / vbv_bufsize=62500 / nal_hrd=none / filler=0 / ip_ratio=1.30 / aq=1:0.80 / aq-sensitivity=10.00 / aq-factor=1.00:1.00:1.00 / aq2=0 / aq3=0
Язык : English
Default : Нет
Forced : Нет
Цветовой диапазон : Limited
Основные цвета : BT.709
Характеристики трансфера : BT.709
Коэффициенты матрицы : BT.709

Аудио #1
Идентификатор : 2
Формат : AC-3
Формат/Информация : Audio Coding 3
Параметр Endianness формата : Big
Идентификатор кодека : A_AC3
Продолжительность : 1 ч. 58 м.
Вид битрейта : Постоянный
Битрейт : 384 Кбит/сек
Каналы : 6 каналов
Расположение каналов : Front: L C R, Side: L R, LFE
Частота : 48,0 КГц
Частота кадров : 31,250 кадров/сек (1536 SPF)
Битовая глубина : 16 бит
Метод сжатия : С потерями
Размер потока : 324 Мбайт (5%)
Заголовок : MVO | iTunes
Язык : Russian
ServiceKind : Complete Main
Default : Да
Forced : Нет

Аудио #2
Идентификатор : 3
Формат : DTS
Формат/Информация : Digital Theater Systems
Режим : 16
Параметр Endianness формата : Big
Идентификатор кодека : A_DTS
Продолжительность : 1 ч. 58 м.
Вид битрейта : Постоянный
Битрейт : 1509 Кбит/сек
Каналы : 6 каналов
Расположение каналов : Front: L C R, Side: L R, LFE
Частота : 48,0 КГц
Частота кадров : 93,750 кадра/сек (512 SPF)
Битовая глубина : 24 бит
Метод сжатия : С потерями
Задержка видео : 11 мс.
Размер потока : 1,24 Гбайт (20%)
Язык : English
Default : Нет
Forced : Нет

Текст #1
Идентификатор : 4
Формат : UTF-8
Идентификатор кодека : S_TEXT/UTF8
Идентификатор кодека/Информация : UTF-8 Plain Text
Заголовок : Forced
Язык : Russian
Default : Да
Forced : Нет

Текст #2
Идентификатор : 5
Формат : UTF-8
Идентификатор кодека : S_TEXT/UTF8
Идентификатор кодека/Информация : UTF-8 Plain Text
Заголовок : Full
Язык : Russian
Default : Нет
Forced : Нет

Текст #3
Идентификатор : 6
Формат : UTF-8
Идентификатор кодека : S_TEXT/UTF8
Идентификатор кодека/Информация : UTF-8 Plain Text
Заголовок : Full
Язык : English
Default : Нет
Forced : Нет

Текст #4
Идентификатор : 7
Формат : UTF-8
Идентификатор кодека : S_TEXT/UTF8
Идентификатор кодека/Информация : UTF-8 Plain Text
Заголовок : SDH
Язык : English
Default : Нет
Forced : Нет

Меню
00:00:00.000 : en:Chapter 01
00:05:46.596 : en:Chapter 02
00:15:00.691 : en:Chapter 03
00:21:15.899 : en:Chapter 04
00:27:37.739 : en:Chapter 05
00:35:04.894 : en:Chapter 06
00:40:40.521 : en:Chapter 07
00:50:57.554 : en:Chapter 08
00:58:08.776 : en:Chapter 09
01:05:21.542 : en:Chapter 10
01:12:05.779 : en:Chapter 11
01:19:48.867 : en:Chapter 12
01:24:27.896 : en:Chapter 13
01:29:38.915 : en:Chapter 14
01:37:41.772 : en:Chapter 15
01:45:05.048 : en:Chapter 16
Скриншоты ЗалилВ ролях: Ричард Гир, Лиор Ашкенази, Майкл Шин, Шарлотта Генсбур, Дэн Стивенс, Стив Бушеми, Рой Авигдори, Йехуда Альмагор, Кэйтлин О Коннелл, Хэнк Азария

Год выхода: 2016
Жанр: Триллер, драма
Страна: Израиль, США
Качество: BDRip 720p | iTunes
Видео: AVC/H.264, 1280x688, ~5820 kbps, 23.976 fps
Режиссер: Джозеф Седар
Субтитры: Русские (форс, полные), английские (полные, SDH)

Кодек: MPEG-4 AVC
О фильме:
Уже немолодой Норман Оппенгеймер из кожи вон лезет, чтобы обзавестись полезными контактами и связями. Однажды ему везёт, и он завязывает личное знакомство с замминистра Израиля. Три года спустя этот политик становится премьер-министром, и жизнь Нормана резко меняется.



Оригинальное название: Norman: The Moderate Rise and Tragic Fall of a New York Fixer

Если у вас возникли проблемы с закачкой Норман: Умеренный взлет и трагическое падение нью-йоркского посредника / Norman: The Moderate Rise and Tragic Fall of a New York Fixer (2016) BDRip 720p | iTunes, перейдите по ссылке - там вы найдете решение своей проблемы.

Категория: Зарубежные фильмы

 

Скачать Норман: Умеренный взлет и трагическое падение нью-йоркского посредника / Norman: The Moderate Rise and Tragic Fall of a New York Fixer (2016) BDRip 720p | iTunes через торрент бесплатно на пк

 

Информация
Посетители, находящиеся в группе Гости, не могут оставлять комментарии к данной публикации.
 
 
Скачать Норман: Умеренный взлет и трагическое падение нью-йоркского посредника / Norman: The Moderate Rise and Tragic Fall of a New York Fixer (2016) BDRip 720p | iTunes через торрент бесплатно на пкCopyright © 2019 .