Скачать Почтальон / The Postman (1997) BDRip 1080p от FREEISLAND через торрент бесплатно на пк




Аудио #2: AC3, 448 Kbps, 48.0 KHz, 6 ch RUS MVO
Формат: MKV
ПочтальонАудио кодеk: AC3
Аудио #1: AC3, 448 Kbps, 48.0 KHz, 6 ch RUS Dub
The Postman«2013 год. Война изменила Землю и людей. Все технологии были уничтожены. Наша единственная надежда - неизвестный никому герой»

Релиз от: ЗалилОписание: Фильм снят по книге Дэвида Брина. Действие происходит в будущем. После глобальной войны и эпидемии выжившие остатки людей селятся разрозненными группами на территории бывших Соединенных Штатов Америки.Герой Кевина Костнера предпочитает жить одиночкой. Он скитается вместе со своим дрессированным мулом из селения в селение, давая представления из Шекспира. Правит всем тиран — генерал Бетлехем. Его армия собирает дань и рекрутов со всех, кто пытается жить мирно.Героя фильма насильно взяли в армию генерала, но он бежал и нашел в джипе скелет почтальона, надел его форму и взял сумку с письмами. Придя в один из лагерей, он представился почтальоном новых возрожденных Соединенных Штатов Америки.Люди поверили ему, также в городке он нашел свою любовь… Десятки последователей почтальона стали доставлять письма, что привело к вооруженному столкновению сил генерала с новой армией Свободы.


Рейтинг ВКИП: для детей старше 16 лет



delia Оценка10 из 10 (7 голосов, самая низкая оценка - 10, самая высокая - 10) КатегорияЗарубежные фильмы Раздают0 Качают0 Сидер замечен08-07-2019 19:19:12 (3 дня назад) Добавлен20-12-2013 10:20:16 (68 месяцев назад) Размер12.17 GB (13069973509 Bytes)Жанр: фантастика, боевик, драма, приключения
Перевод: Профессиональный (дублированный)
В ролях: Кевин Костнер / Kevin Costner (The Postman), Уилл Пэттон / Will Patton (General Bethlehem), Лоренц Тейт / Larenz Tate (Ford Lincoln Mercury), Оливия Уильямс / Olivia Williams (Abby), Джеймс Руссо / James Russo (Idaho), Дэниэл фон Барген / Daniel von Bargen (Pineview Sheriff Briscoe), Том Петти / Tom Petty (Bridge City Mayor), Скотт Бэйрстоу / Scott Bairstow (Luke), Джованни Рибизи / Giovanni Ribisi (Bandit 20), Роберта Максвелл / Roberta Maxwell (Irene March)

Видео: 1914x796 (2.40:1), 23.976 fps, AVC, 8009 Kbps
Качество: BDRip 1080p
Аудио:
Аудио #4: AC3, 448 Kbps, 48.0 KHz, 6 ch ENG

МедиаИнфо
x264 [info]: frame I:1984 Avg QP:17.05 size:167299
x264 [info]: frame P:61642 Avg QP:19.38 size: 70268
x264 [info]: frame B:192191 Avg QP:21.51 size: 31283
*****************************************************
General
Unique ID : 233157296248578734928706486035943825612 (0xAF68763C70CB1979A12716F3D674A0CC)
Complete name : The.Postman.1997.1080p.F-HD.mkv
Format : Matroska
Format version : Version 4 / Version 2
File size : 12.2 GiB
Duration : 2h 57mn
Overall bit rate : 9 797 Kbps
Encoded date : UTC 2013-12-20 04:30:31
Writing application : mkvmerge v6.6.0 ('The Edge Of The In Between') built on Dec 1 2013 17:55:00
Writing library : libebml v1.3.0 + libmatroska v1.4.1

Video
ID : 1
Format : AVC
Format/Info : Advanced Video Codec
Format profile : High@L4.1
Format settings, CABAC : Yes
Format settings, ReFrames : 5 frames
Codec ID : V_MPEG4/ISO/AVC
Bit rate : 8 009 Kbps
Width : 1 914 pixels
Height : 796 pixels
Display aspect ratio : 2.40:1
Frame rate mode : Variable
Original frame rate : 23.976 fps
Color space : YUV
Chroma subsampling : 4:2:0
Bit depth : 8 bits
Scan type : Progressive
Bits/(Pixel*Frame) : 0.219
Writing library : x264 core 140 r2377 1ca7bb9
Encoding settings : cabac=1 / ref=5 / deblock=1:-2:-2 / analyse=0x3:0x113 / me=umh / subme=11 / psy=1 / psy_rd=1.00:0.00 / mixed_ref=1 / me_range=32 / chroma_me=1 / trellis=2 / 8x8dct=1 / cqm=0 / deadzone=21,11 / fast_pskip=0 / chroma_qp_offset=-2 / threads=6 / lookahead_threads=1 / sliced_threads=0 / nr=0 / decimate=1 / interlaced=0 / bluray_compat=0 / constrained_intra=0 / bframes=9 / b_pyramid=2 / b_adapt=2 / b_bias=0 / direct=3 / weightb=1 / open_gop=0 / weightp=2 / keyint=240 / keyint_min=23 / scenecut=40 / intra_refresh=0 / rc_lookahead=40 / rc=2pass / mbtree=0 / bitrate=8009 / ratetol=1.0 / qcomp=0.75 / qpmin=0 / qpmax=69 / qpstep=4 / cplxblur=20.0 / qblur=0.5 / vbv_maxrate=50000 / vbv_bufsize=62500 / nal_hrd=none / filler=0 / ip_ratio=1.40 / pb_ratio=1.30 / aq=1:0.80
Language : English
Default : Yes
Forced : No
Color primaries : BT.709
Transfer characteristics : BT.709
Matrix coefficients : BT.709

Audio #1
ID : 2
Format : AC-3
Format/Info : Audio Coding 3
Mode extension : CM (complete main)
Format settings, Endianness : Big
Codec ID : A_AC3
Duration : 2h 57mn
Bit rate mode : Constant
Bit rate : 448 Kbps
Channel(s) : 6 channels
Channel positions : Front: L C R, Side: L R, LFE
Sampling rate : 48.0 KHz
Bit depth : 16 bits
Compression mode : Lossy
Stream size : 570 MiB (5%)
Title : Дубдяж
Language : Russian
Default : Yes
Forced : No

Audio #2
ID : 3
Format : AC-3
Format/Info : Audio Coding 3
Mode extension : CM (complete main)
Format settings, Endianness : Big
Codec ID : A_AC3
Duration : 2h 57mn
Bit rate mode : Constant
Bit rate : 448 Kbps
Channel(s) : 6 channels
Channel positions : Front: L C R, Side: L R, LFE
Sampling rate : 48.0 KHz
Bit depth : 16 bits
Compression mode : Lossy
Stream size : 570 MiB (5%)
Title : MVO
Language : Russian
Default : No
Forced : No

Audio #3
ID : 4
Format : AC-3
Format/Info : Audio Coding 3
Mode extension : CM (complete main)
Format settings, Endianness : Big
Codec ID : A_AC3
Duration : 2h 57mn
Bit rate mode : Constant
Bit rate : 448 Kbps
Channel(s) : 6 channels
Channel positions : Front: L C R, Side: L R, LFE
Sampling rate : 48.0 KHz
Bit depth : 16 bits
Compression mode : Lossy
Stream size : 570 MiB (5%)
Title : Ю. Живов
Language : Russian
Default : No
Forced : No

Audio #4
ID : 5
Format : AC-3
Format/Info : Audio Coding 3
Mode extension : CM (complete main)
Format settings, Endianness : Big
Codec ID : A_AC3
Duration : 2h 57mn
Bit rate mode : Constant
Bit rate : 448 Kbps
Channel(s) : 6 channels
Channel positions : Front: L C R, Side: L R, LFE
Sampling rate : 48.0 KHz
Bit depth : 16 bits
Compression mode : Lossy
Stream size : 570 MiB (5%)
Language : English
Default : No
Forced : No

Text #1
ID : 6
Format : UTF-8
Codec ID : S_TEXT/UTF8
Codec ID/Info : UTF-8 Plain Text
Language : Russian
Default : No
Forced : No

Text #2
ID : 7
Format : UTF-8
Codec ID : S_TEXT/UTF8
Codec ID/Info : UTF-8 Plain Text
Language : English
Default : No
Forced : No

Menu
00:00:00.000 : en:00:00:00.000
00:03:48.978 : en:00:03:48.978
00:06:53.204 : en:00:06:53.204
00:11:18.427 : en:00:11:18.427
00:15:33.932 : en:00:15:33.932
00:21:55.314 : en:00:21:55.314
00:27:15.050 : en:00:27:15.050
00:30:55.228 : en:00:30:55.228
00:34:45.541 : en:00:34:45.541
00:38:04.907 : en:00:38:04.907
00:41:08.299 : en:00:41:08.299
00:44:11.857 : en:00:44:11.857
00:50:03.333 : en:00:50:03.333
00:55:13.643 : en:00:55:13.643
00:58:39.807 : en:00:58:39.807
01:02:12.645 : en:01:02:12.645
01:04:50.636 : en:01:04:50.636
01:08:37.404 : en:01:08:37.404
01:14:04.148 : en:01:14:04.148
01:17:34.232 : en:01:17:34.232
01:20:45.799 : en:01:20:45.799
01:26:43.406 : en:01:26:43.406
01:30:11.197 : en:01:30:11.197
01:32:59.365 : en:01:32:59.365
01:34:40.925 : en:01:34:40.925
01:37:09.156 : en:01:37:09.156
01:41:00.888 : en:01:41:00.888
01:43:07.097 : en:01:43:07.097
01:47:08.839 : en:01:47:08.839
01:52:51.264 : en:01:52:51.264
02:00:31.265 : en:02:00:31.265
02:07:00.070 : en:02:07:00.070
02:11:41.602 : en:02:11:41.602
02:17:03.089 : en:02:17:03.089
02:20:05.688 : en:02:20:05.688
02:22:09.270 : en:02:22:09.270
02:26:00.752 : en:02:26:00.752
02:30:58.966 : en:02:30:58.966
02:33:39.418 : en:02:33:39.418
02:36:10.069 : en:02:36:10.069
02:39:22.844 : en:02:39:22.844
02:42:21.857 : en:02:42:21.857
02:47:36.880 : en:02:47:36.880
02:51:35.284 : en:02:51:35.284Знаете ли Вы, что...★ Фильм снимался в Вашингтоне, Аризоне и Орегоне.

★ Длина картины исчисляется в 4982 метров пленки.

★ Фильм снят по одноименному постапокалиптическому роману Дэвида Брина.

★ Кевин Костнер, как режиссёр и продюсер задействовал в фильме троих собственных детей: Энни Костнер, Лили Костнер и Джо Костнер.Скриншоты







Рейтинг MPAA: Лицам до 17 лет обязательно присутствие взрослого
Продолжительность: 02:57:52
Аудио #3: AC3, 448 Kbps, 48.0 KHz, 6 ch RUS Ю.Живов AVO
Режиссер: Кевин Костнер


Год выпуска: 1997
Страна: США
Видео кодек: H.264 (AVC)
Субтитры: Russian (UTF-8), English (UTF-8)

Если у вас возникли проблемы с закачкой Почтальон / The Postman (1997) BDRip 1080p от FREEISLAND, перейдите по ссылке - там вы найдете решение своей проблемы.

Категория: Зарубежные фильмы

 

Скачать Почтальон / The Postman (1997) BDRip 1080p от FREEISLAND через торрент бесплатно на пк

 

Информация
Посетители, находящиеся в группе Гости, не могут оставлять комментарии к данной публикации.
 
 
Скачать Почтальон / The Postman (1997) BDRip 1080p от FREEISLAND через торрент бесплатно на пкCopyright © 2019 .