Скачать Мы уходим / Pass Over (2018) WEB-DL 1080p | Sub через торрент бесплатно на пк






Видео: AVC, 1920x1080, 23.976 fps, 5243 kb/s
Контейнер: MKV
Формат субтитров: softsub (SRT)

MediaInfoComplete name : D:Pass.Over.2018.1080p.AMZN.mkv
Format : Matroska
Format version : Version 4 / Version 2
File size : 3.15 GiB
Duration : 1 h 15 min
Overall bit rate mode : Variable
Overall bit rate : 6 002 kb/s
Encoded date : UTC 2018-04-30 04:38:12
Writing application : mkvmerge v22.0.0 ('At The End Of The World') 64-bit
Writing library : libebml v1.3.5 + libmatroska v1.4.8

Video
ID : 1
Format : AVC
Format/Info : Advanced Video Codec
Format profile : High@L4
Format settings : CABAC / 4 Ref Frames
Format settings, CABAC : Yes
Format settings, RefFrames : 4 frames
Codec ID : V_MPEG4/ISO/AVC
Duration : 1 h 15 min
Bit rate mode : Variable
Bit rate : 5 360 kb/s
Maximum bit rate : 15.0 Mb/s
Width : 1 920 pixels
Height : 1 080 pixels
Display aspect ratio : 16:9
Frame rate mode : Constant
Frame rate : 23.976 (24000/1001) FPS
Color space : YUV
Chroma subsampling : 4:2:0
Bit depth : 8 bits
Scan type : Progressive
Bits/(Pixel*Frame) : 0.108
Stream size : 2.82 GiB (89%)
Language : English
Default : Yes
Forced : No
Color range : Limited
Color primaries : BT.709
Transfer characteristics : BT.709
Matrix coefficients : BT.709

Audio
ID : 2
Format : E-AC-3
Format/Info : Enhanced Audio Coding 3
Format settings, Endianness : Big
Codec ID : A_EAC3
Duration : 1 h 15 min
Bit rate mode : Constant
Bit rate : 640 kb/s
Channel(s) : 6 channels
Channel positions : Front: L C R, Side: L R, LFE
Sampling rate : 48.0 kHz
Frame rate : 187.500 FPS (256 SPF)
Compression mode : Lossy
Stream size : 344 MiB (11%)
Language : English
Service kind : Complete Main
Default : Yes
Forced : No

Text #1
ID : 3
Format : UTF-8
Codec ID : S_TEXT/UTF8
Codec ID/Info : UTF-8 Plain Text
Duration : 1 h 11 min
Bit rate : 115 b/s
Count of elements : 1080
Stream size : 60.6 KiB (0%)
Language : Russian
Default : Yes
Forced : No

Text #2
ID : 4
Format : UTF-8
Codec ID : S_TEXT/UTF8
Codec ID/Info : UTF-8 Plain Text
Duration : 1 h 11 min
Bit rate : 72 b/s
Count of elements : 1510
Stream size : 37.9 KiB (0%)
Language : English
Default : No
Forced : No

Menu
00:00:00.000 : en:Amazon Original
00:00:22.000 : en:On the corner of 64th and Martin Luther King
00:09:28.000 : en:Gunshots cut a celebration short
00:13:02.000 : en:Mister stumbles upon Moses and Kitch
00:20:04.000 : en:Mister unpacks his picnic
00:25:11.000 : en:The N word
00:29:56.000 : en:Salutations
00:32:33.000 : en:A visit from Ossifer
00:35:01.000 : en:A new day
00:39:14.000 : en:What ever happened to
00:45:30.000 : en:The meaning behind a name
00:51:04.000 : en:Pass over
00:54:57.000 : en:Kitch and Moses utilize a rock
00:58:53.000 : en:Moses tests Ossifer's patience
01:01:31.000 : en:Freedom
01:05:56.000 : en:Taking back what's ours
01:08:49.000 : en:(No One Knows Me) Like the Piano
01:12:20.000 : en:End Credits
Скриншоты
Оценка10 из 10 (2 голосов, самая низкая оценка - 10, самая высокая - 10) КатегорияЗарубежные фильмы Раздают1 Качают0 Сидер замечен11-07-2019 23:19:12 (52 минуты назад) Добавлен30-04-2018 9:11:39 (15 месяцев назад) Размер3.15 GB (3387651899 Bytes)Описание: В этой смелой, зажигательной новой версии пьесы «В ожидании Годо» два молодых афроамериканца бьют баклуши на углу улицы, говорят ни о чем, убивают время и надеются на то, что, возможно, хотя бы этот день будет отличаться от череды их унылых будней. После появления белого незнакомца нарастает напряжение, и именно оно грозит помешать планам парней.



Тип релиза: WEB-DL 1080p (Amazon)
Оригинальная аудиодорожка: Английская

В ролях: Блейк ДеЛонг, Райан Халлахан, Джон Майкл Хилл, Джулиан Паркер

Перевод: Субтитры
Год выпуска: 2018
Аудио: E-AC3, 48 KHz, 6 ch, 640 kbps (Оригинал)
Продолжительность: 01:15:15

Страна: США
Субтитры: Русские (Amazon), английские (Full)
Режиссер: Спайк Ли, Даня Тэймор

Жанр: Драма

Если у вас возникли проблемы с закачкой Мы уходим / Pass Over (2018) WEB-DL 1080p | Sub, перейдите по ссылке - там вы найдете решение своей проблемы.

Категория: Зарубежные фильмы

 

Скачать Мы уходим / Pass Over (2018) WEB-DL 1080p | Sub через торрент бесплатно на пк

 

Информация
Посетители, находящиеся в группе Гости, не могут оставлять комментарии к данной публикации.
 
 
Скачать Мы уходим / Pass Over (2018) WEB-DL 1080p | Sub через торрент бесплатно на пкCopyright © 2019 .