Скачать Таксандрия / Taxandria (1994) DVDRip-AVC | L1 через торрент бесплатно на пк






Информация о фильме
Жанр: анимация, фэнтези, приключения, арт-хаус
О фильме:
Юный принц со своим учителем останавливаются в пустом приморском отеле, чтобы спокойно позаниматься перед экзаменами. Вокруг то и дело происходят необъяснимые погони, одна группа людей пытается отловить другую, и становится понятно, что это как-то связано со стоящим неподалеку маяком, на территорию которого попадает принц, прогуливаясь по пляжу. Познакомившись со смотрителем маяка он открывает для себя еще более ирреальную страну, за жизнью которой можно наблюдать сквозь свет прожектора на маяке. В этой стране остановилось время в тот момент, когда природный катаклизм готов был стереть ее с лица Земли. Но жизнь в ней продолжается, образовавшийся монархический строй с трогательной заботой опекает спокойствие и процветание граждан, а наивный молодой помощник наборщика газеты «Вечное Сейчас», вдруг становится главной угрозой обществу.



Студия: ASLK-CGER Bank, Belgische Radio en Televisie (BRTN), Berliner Filmförderung, Bibo Films, Canal+ [fr], Centre National de la Cinématographie (CNC), Nederlandse Omroepstichting (NOS), etc.
Кодек: H.264
Оригинальное название: Taxandria
В ролях: Армин Мюллер-Шталь, Эллиотт Спирс, Катя Штудт, Ричард Кэттэн, Жулье Скунартс, Эндрю Сакс, Даниэль Эмильфорк, Крис Кампьон, Роберт Лемар, Жорис Ван Рансбик

AMKaliostro ОценкаНикто ещё не поставил оценку КатегорияМультипликация Раздают0 Качают0 Сидер замечен09-07-2019 14:19:12 (2 дня назад) Добавлен04-04-2017 18:19:50 (28 месяцев назад) Размер1.46 GB (1566127356 Bytes)Перевод: Любительский (одноголосый закадровый) | viktor_2838

#1. MP3; 44,1 КГц; 96,0 Кбит/сек; 2 канала |Видео: High@L4.1; 656x576@932x576; 2342 Кбит/сек; 25,000 кадров/сек; 0.248
Страна: Бельгия, Германия, Франция
#2. AC3; 48,0 КГц; 192 Кбит/сек; 2 канала |Звук:
Субтитры: Russian (bambaladam)

Скриншоты MI
Общее
Уникальный идентификатор : 221161741520816433035939510368835480382 (0xA66233B9DCA34FBE99EAA03F04882B3E)
Полное имя : D:Фильмы_ИзбранноеТаксандрия (1994) DVDRip L1.mkv
Формат : Matroska
Версия формата : Version 4 / Version 2
Размер файла : 1,46 Гбайт
Продолжительность : 1 ч. 19 м.
Общий поток : 2632 Кбит/сек
Дата кодирования : UTC 2017-04-04 13:30:06
Программа кодирования : mkvmerge v9.8.0 ('Kuglblids') 64bit
Библиотека кодирования : libebml v1.3.4 + libmatroska v1.4.5

Видео
Идентификатор : 1
Формат : AVC
Формат/Информация : Advanced Video Codec
Профиль формата : High@L4.1
Параметр CABAC формата : Да
Параметр ReFrames формата : 16 кадров
Идентификатор кодека : V_MPEG4/ISO/AVC
Продолжительность : 1 ч. 19 м.
Битрейт : 2342 Кбит/сек
Ширина : 656 пикселей
Высота : 576 пикселей
Соотношение сторон : 16:10
Режим частоты кадров : Постоянный
Частота кадров : 25,000 кадров/сек
Цветовое пространство : YUV
Субдискретизация насыщенности : 4:2:0
Битовая глубина : 8 бит
Тип развёртки : Прогрессивная
Бит/(Пиксели*Кадры) : 0.248
Размер потока : 1,30 Гбайт (89%)
Библиотека кодирования : x264 core 148 r2744 b97ae06
Настройки программы : cabac=1 / ref=16 / deblock=1:-1:-1 / analyse=0x3:0x133 / me=umh / subme=10 / psy=1 / psy_rd=1.00:0.15 / mixed_ref=1 / me_range=24 / chroma_me=1 / trellis=2 / 8x8dct=1 / cqm=0 / deadzone=21,11 / fast_pskip=1 / chroma_qp_offset=-3 / threads=6 / lookahead_threads=1 / sliced_threads=0 / nr=0 / decimate=1 / interlaced=0 / bluray_compat=0 / constrained_intra=0 / bframes=8 / b_pyramid=2 / b_adapt=2 / b_bias=0 / direct=3 / weightb=1 / open_gop=0 / weightp=2 / keyint=250 / keyint_min=25 / scenecut=40 / intra_refresh=0 / rc_lookahead=60 / rc=2pass / mbtree=1 / bitrate=2342 / ratetol=1.0 / qcomp=0.60 / qpmin=0 / qpmax=69 / qpstep=4 / cplxblur=20.0 / qblur=0.5 / vbv_maxrate=50000 / vbv_bufsize=62500 / nal_hrd=none / filler=0 / ip_ratio=1.40 / aq=1:1.00
Default : Да
Forced : Нет

Аудио #1
Идентификатор : 2
Формат : MPEG Audio
Версия формата : Version 1
Профиль формата : Layer 3
Режим : Joint stereo
Расширение режима : MS Stereo
Идентификатор кодека : A_MPEG/L3
Идентификатор кодека/Подсказка : MP3
Продолжительность : 1 ч. 19 м.
Вид битрейта : Постоянный
Битрейт : 96,0 Кбит/сек
Каналы : 2 канала
Частота : 44,1 КГц
Частота кадров : 38,281 кадров/сек (1152 spf)
Метод сжатия : С потерями
Задержка видео : 19 мс.
Размер потока : 54,4 Мбайт (4%)
Заголовок : L1 (viktor_2838)
Библиотека кодирования : LAME3.96
Язык : Russian
Default : Да
Forced : Нет

Аудио #2
Идентификатор : 3
Формат : AC-3
Формат/Информация : Audio Coding 3
Расширение режима : CM (complete main)
Параметр Endianness формата : Big
Идентификатор кодека : A_AC3
Продолжительность : 1 ч. 19 м.
Вид битрейта : Постоянный
Битрейт : 192 Кбит/сек
Каналы : 2 канала
Расположение каналов : Front: L R
Частота : 48,0 КГц
Частота кадров : 31,250 кадров/сек (1536 spf)
Битовая глубина : 16 бит
Метод сжатия : С потерями
Размер потока : 109 Мбайт (7%)
Заголовок : Original
Язык : English
Default : Нет
Forced : Нет

Текст
Идентификатор : 4
Формат : UTF-8
Идентификатор кодека : S_TEXT/UTF8
Идентификатор кодека/Информация : UTF-8 Plain Text
Продолжительность : 1 ч. 14 м.
Битрейт : 83 бит/сек
Count of elements : 616
Размер потока : 45,7 Кбайт (0%)
Заголовок : bambaladam
Язык : Russian
Default : Нет
Forced : Нет

Меню
00:00:00.000 : :Глава 01
00:09:48.960 : :Глава 02
00:14:10.080 : :Глава 03
00:24:24.960 : :Глава 04
00:29:24.000 : :Глава 05
00:40:14.400 : :Глава 06
00:49:39.840 : :Глава 07
00:55:56.160 : :Глава 08
01:05:23.040 : :Глава 09
01:11:34.080 : :Глава 10
ЗалилL1
Год выхода: 1994
Качество: DVDRip-AVC (DVD9 PAL 16:9)
Режиссер: Рауль Сервэ
English
Продолжительность: 01:19:20
Название: Таксандрия

Если у вас возникли проблемы с закачкой Таксандрия / Taxandria (1994) DVDRip-AVC | L1, перейдите по ссылке - там вы найдете решение своей проблемы.

Категория: Мультипликация

 

Скачать Таксандрия / Taxandria (1994) DVDRip-AVC | L1 через торрент бесплатно на пк

 

Информация
Посетители, находящиеся в группе Гости, не могут оставлять комментарии к данной публикации.
 
 
Скачать Таксандрия / Taxandria (1994) DVDRip-AVC | L1 через торрент бесплатно на пкCopyright © 2019 .