Скачать Прошлой ночью в Нью-Йорке / Last Night (2010) BDRip 1080p | D через торрент бесплатно на пк






Аудио #2
Идентификатор : 3
Формат : DTS
Формат/Информация : Digital Theater Systems
Идентификатор кодека : A_DTS
Продолжительность : 1 ч. 32 м.
Вид битрейта : Постоянный
Битрейт : 1510 Кбит/сек
Каналы : 6 каналов
Расположение каналов : Front: L C R, Side: L R, LFE
Частота : 48,0 КГц
Битовая глубина : 24 бит
Метод сжатия : С потерями
Размер потока : 995 Мбайт (10%)
Заголовок : DTS 5.1 1536 kbps - Eng
Язык : English
Default : Нет
Forced : Нет

Текст #2
Идентификатор : 5
Формат : UTF-8
Идентификатор кодека : S_TEXT/UTF8
Идентификатор кодека/Информация : UTF-8 Plain Text
Заголовок : Eng Full
Язык : English
Default : Нет
Forced : Нет


Продолжительность: 01:32:30
Apollon2012 Оценка10 из 10 (1 голосов, самая низкая оценка - 10, самая высокая - 10) КатегорияЗарубежные фильмы Раздают3 Качают0 Сидер замечен12-07-2019 1:19:11 (52 минуты назад) Добавлен05-03-2019 19:05:41 (4 месяца назад) Размер9.81 GB (10538137122 Bytes)Информация о фильме
Оригинальное название: Last Night
Год выхода: 2010
Общее
Уникальный идентификатор : 227698233770887630116046859948356430462 (0xAB4D15ACF4A5528C8F217A6C8E0A6A7E)
Полное имя : D:Torrent RutrackerProshloj.nochju.v.Nju-Jorke.2010.BDRip.1080p.mkv
Формат : Matroska
Версия формата : Version 2
Размер файла : 9,81 Гбайт
Продолжительность : 1 ч. 32 м.
Общий поток : 15,3 Мбит/сек
Название фильма : Прошлой ночью в Нью-Йорке / Last Night
Дата кодирования : UTC 2012-01-31 17:03:11
Программа кодирования : mkvmerge v5.0.1 ('Es ist Sommer') built on Oct 9 2011 11:55:43
Библиотека кодирования : libebml v1.2.2 + libmatroska v1.3.0

Страна: США / Франция, Gaumont
Качество: BDRip 1080p
русские (Full) + английские (Full)


Скриншоты


ЗалилСубтитры:(Rus DUB)
О фильме:
Молодожены Майкл и Джоанна — красивы, успешны, живут в огромной квартире центра Манхеттена, но всего одна ночь заставит их усомниться друг в друге… За день до нее на вечеринке Джоанне всего на мгновение покажется, что Майкл неравнодушен к симпатичной Лауре, своей новой сотруднице, с которой ему предстоит отправиться в командировку… И когда на следующее утро неподалеку от дома Джоанна встретит своего бывшего возлюбленного, французского драматурга Алекса, она примет его предложение поужинать, не задумываясь… Так начнется долгая ночь, которая станет для Джоанны и Майкла настоящим испытанием в супружеской верности…



Аудио 2: DTS, 3/2 (L,C,R,l,r) + LFE ch / 48 kHz / 1510 kbps / 24-bitАудио 1: DTS, 3/2 (L,C,R,l,r) + LFE ch / 48 kHz / 1152 kbps / 16-bitТекст #1
Идентификатор : 4
Формат : UTF-8
Идентификатор кодека : S_TEXT/UTF8
Идентификатор кодека/Информация : UTF-8 Plain Text
Заголовок : Rus Full
Язык : Russian
Default : Нет
Forced : Нет

Аудио #1
Идентификатор : 2
Формат : DTS
Формат/Информация : Digital Theater Systems
Идентификатор кодека : A_DTS
Продолжительность : 1 ч. 32 м.
Вид битрейта : Постоянный
Битрейт : 1152 Кбит/сек
Каналы : 6 каналов
Расположение каналов : Front: L C R, Side: L R, LFE
Частота : 48,0 КГц
Битовая глубина : 16 бит
Метод сжатия : С потерями
Размер потока : 759 Мбайт (8%)
Заголовок : DTS 5.1 1152 kbps - Dub
Язык : Russian
Default : Да
Forced : Нет

В ролях: Кира Найтли, Сэм Уортингтон, Ева Мендес, Гийом Кане, Энсон Маунт, Гриффин Данн, Стефани Романов, Скотт Эдсит, Дэниэл Эрик Голд, Джастин Котсонас

Название: Прошлой ночью в Нью-Йорке
Режиссер: Мэсси Таджедин
Перевод: Дублированный [лицензия]

Рецензия от soulsaverближе, чем близость
То, что Кира Найтли и Натали Портман похожи внешне, открыл ещё Джордж Лукас. Поэтому приблизительно узнав сюжет фильма, я слегка насторожилась. Напрашивается параллель с фильмом «Близость», а он невероятно сильный и яркий, и, независимо от того, понравится он вам или нет, впечатление он оставит. Что же ждать от этого фильма, было непонятно.

Несмотря на ряд отрицательных отзывов моих знакомых и иногда довольно скептическую реакцию зала, могу сказать, что задумка Мэсси Таджедин (это имя, пожалуй, надо бы запомнить) удалась. Впрочем, может, мне просто хотелось чего-то такого жизненного, с мытьём посуды и перекусами в ночи, с Кирой, отправляющейся в одной и той же майке и в пир, и в мир (но замарашку она не играет, нет), с чужой собакой и захлопыванием дверей. И при этом же решаются если не вечные, то хотя бы важнейшие вопросы. Ну, верность там. Любовь. Вы поняли.

Хочется крикнуть злобное «нет» только Сэму Уортингтону, потому что остаётся неясным, должен ли его герой всегда выглядеть таким пришибленным, или у Сэма просто не хватило сил хоть немного менять выражение лица по ходу фильма. Остальные хороши, и все на своих местах. Гриффин Данн, не являющийся главным героем, тем не менее тоже очень приятен. А к нескольким его репликам вообще впору ставить «NB!»

По поводу непосредственно идей — а вот ответьте, кто выиграл от прошлой ночи (кстати, почему в Нью-Йорке? добрая половина действа происходит вовсе не там).

А возвращаясь к невольному сравнительному анализу с «Близостью», хочу отметить, что фильмы очень сильно отличаются. И слава Богу. Дело даже не в сюжете, а в самой атмосфере. «Близость» — больше театр, чем кино. «Last Night» куда ближе к жизни.

Близко, в общем:

9 из 10.
Рецензия от Martin_Tulip«Не может сердце жить изменой, измены нет: любовь - Одна»
Наверняка каждый из нас задумывался о том, сможет ли он простить измену любимому человеку. А если сможет, то как потом с этим жить. Или же приходит к нам мысль о том, сможем ли мы изменить сами своей второй половинке. И как же быть, когда переступишь черту.

«Кого прощаешь, не хочется больше обнимать», — бродит фраза по сети. А если не можешь без него, а он без тебя. С другой стороны, всё же набираешься сил посмотреть в глаза человеку, когда в голове непрерывно постукивает молот совести и громогласно оглушает все посторонние мысли чувством вины.

Не будем строить предположения. Взглянем на то, что есть.

Прошлой ночью в Нью-Йорке произошло странное. Не то чтобы метеорит упал, но зеркало треснуло. Семейная пара живёт в счастливом браке, у них своя квартира, друзья, работа, упорядоченный быт. Джоанна и Майкл любят друг друга.

Но имеет место быть вечеринка. И Джоанна видит, что сотрудница Майкла очень привлекательна и явно заинтересована своим коллегой. И Джоанна хорошо знает своего мужа, она понимает, что и его к ней влечёт. А за вечеринкой идёт командировка в Филадельфию. Встречным прохожим по дороге в кафе оказывается старый знакомый нашей героини. «Старые знакомые», они как пряность для глинтвейна, затрагивают чувства и ощущения. Ведь окончательно теряешь человека лишь тогда, когда он умирает, но речь не об этом.

И вот тут зеркало дало трещину.

Этот фильм — маленький шедевр. Зритель словно заглядывает в чужое окно и видит то, чего не должен. На это кино нужно идти с настроем похода в театр, так как всё происходящее напоминает хорошо поставленный спектакль, и не хочется ни посторонних шумов, ни включенных телефонов. Вместо бинокля — прекрасная операторская работа, где показано всё, чтобы увидеть и понять.

Всё прекрасно в этом фильме. С уверенность могу сказать, что это отражение наших историй, переживаний, жизней. Пускай отчасти. Но ведь вы вспоминаете о ком-то, когда не можете заснуть? Таите самое сокровенное даже в мгновения самого сильного накала страстей, потому что есть темы, открыв которые, не запаишь никаким замком. Влечения, незаконченные романы, соблазны, верность и преданность. Майкл ни разу не упомянет о той командировке, впрочем, как и Джоанна проносит сквозь годы молчание. Когда речь идёт о любви, сочетается самое несочетаемое.

Проникнетесь, полюбуйтесь, поймайте трепет от просмотра. Затаите дыхание в финальной сцене фильма. Ведь они любят друг друга.

И это согревает.
Рецензия от ul-liaПолтора часа супружеских мытарств…
Несколько дней назад, путем неимоверных усилий (обстоятельства складывались явно не в мою пользу), таки попала на сеанс «Прошлой ночью в Нью-Йорке». Если честно, теперь могу сказать, что фильм, пожалуй, не стоил потраченных во время пробежки калорий.

В первую очередь он привлек меня интересной тематикой — тема супружеских взаимоотношений, а особенно верности и неверности, в общем, достаточно глубока сама по себе, интересна и вряд ли когда-то будет исчерпана, а во вторую — актерским составом. Что ни говори, а интересно было бы посмотреть на Сэма Уортингтона в мелодраме, да еще в ансамбле с Кирой Найтли и Евой Мендес.

К сожалению, должна сказать, что если идея и тема фильма были очень даже неплохи и многообещающи, то актерское исполнение, да и подбор их, как мне показалось, оставил желать лучшего.

Тема довольно проста — пара дней из жизни молодой супружеской пары, которые давно вместе (а может и недавно — кому как). Майкл должен ехать в командировку с коллегой по работе, которая хороша собой и к которой он явно неровно дышит (да что я рассказываю, ее роль исполняет Ева Мендес — его можно понять). Джоанна, для которой не остался тайной мужнин интерес, вызывает его на неприятный для обоих разговор… Поссорившись, а вскоре помирившись, супруги расстаются в общем-то ненадолго, но одну ночь они проведут врозь. И эту ночь каждый из них вряд ли когда-то забудет.

Вот рассказываю, а сама думаю — ну ведь мог же просто шедевр получиться… Почему же фильм не произвел на меня должного впечатления?..

Да потому, что Сэму Уортингтону все-таки лучше продолжать играть в фантастических боевиках, там он смотрится гораздо органичнее. А здесь своего и так жалковатого и не вызывающего никакой симпатии героя он смог сделать еще и смешным. На его растерянную и страдальческую физиономию было просто неловко смотреть.

А игра Киры Найтли мне совсем не показалась искренней (сейчас меня конечно закидают камнями все поклонники актрисы). Все как-то нарочито и неестественно. Может быть дело в том, что мне она не нравится как актриса, хотя раньше ее игра меня не раздражала. Но здесь просто резал глаз ее постоянный крупный план.

Пожалуй, приличней всех здесь смотрелась Ева Мендес, она органична, довольно избыточна, но это диктовала ей роль, как мне показалось, со своей задачей она справилась. Гийом Кане — о нем не могу сказать ничего, ни плохого, ни хорошего. Делайте выводы сами.

Очень хотелось бы порассуждать о тонкостях семейной жизни, о природе измен, о возможности прощения или невозможности оного, и о том, что можно считать изменой, а что нет, кино-то в общем об этом, но честно говоря не хочется, потому исполнение не понравилось совсем. Удивлена такому количеству восторженных отзывов, и делаю вывод, что это просто не мой фильм.

Но есть одна вещь, которая мне здесь безоговорочно понравилась — это музыкальное сопровождение. Как оказалось, Клинт Мэнселл написал музыку к ни одному и не двум замечательным фильмам, и здесь профессионализм его не подвел. Вот музыка здесь замечательная, атмосферная, и в тему. Но, увы, только она.

Ставлю символическиe 5 из 10

MediaInfo
(Original Eng)
«Куда приводят желания»

[font=Trebuchet MS]Кодек: AVC
Видео: H.264/AVC, 1920x816 (2.35:1), 24.000 fps, 12600 kbps, 0.335 bit/pixel
Жанр: драма, мелодрама
Видео
Идентификатор : 1
Формат : AVC
Формат/Информация : Advanced Video Codec
Профиль формата : High@L4.1
Параметр CABAC формата : Да
Параметр ReFrames формата : 5 кадров
Идентификатор кодека : V_MPEG4/ISO/AVC
Продолжительность : 1 ч. 32 м.
Битрейт : 12,6 Мбит/сек
Ширина : 1920 пикселей
Высота : 816 пикселей
Соотношение сторон : 2,35:1
Частота кадров : 24,000 кадра/сек
Цветовое пространство : YUV
Субдискретизация насыщенности : 4:2:0
Битовая глубина : 8 бит
Тип развёртки : Прогрессивная
Бит/(Пиксели*Кадры) : 0.335
Размер потока : 7,91 Гбайт (81%)
Заголовок : Last Night
Библиотека кодирования : x264 core 115 r1995 c1e60b9
Настройки программы : cabac=1 / ref=5 / deblock=1:-2:-2 / analyse=0x3:0x133 / me=umh / subme=8 / psy=1 / psy_rd=1.00:0.15 / mixed_ref=1 / me_range=32 / chroma_me=1 / trellis=2 / 8x8dct=1 / cqm=0 / deadzone=21,11 / fast_pskip=1 / chroma_qp_offset=-3 / threads=4 / sliced_threads=0 / nr=0 / decimate=1 / interlaced=0 / bluray_compat=0 / constrained_intra=0 / bframes=3 / b_pyramid=2 / b_adapt=2 / b_bias=0 / direct=3 / weightb=1 / open_gop=0 / weightp=2 / keyint=250 / keyint_min=24 / scenecut=40 / intra_refresh=0 / rc_lookahead=40 / rc=2pass / mbtree=1 / bitrate=12600 / ratetol=1.0 / qcomp=0.60 / qpmin=10 / qpmax=51 / qpstep=4 / cplxblur=20.0 / qblur=0.5 / ip_ratio=1.40 / aq=1:1.00
Default : Да
Forced : Нет

Если у вас возникли проблемы с закачкой Прошлой ночью в Нью-Йорке / Last Night (2010) BDRip 1080p | D, перейдите по ссылке - там вы найдете решение своей проблемы.

Категория: Зарубежные фильмы

 

Скачать Прошлой ночью в Нью-Йорке / Last Night (2010) BDRip 1080p | D через торрент бесплатно на пк

 

Информация
Посетители, находящиеся в группе Гости, не могут оставлять комментарии к данной публикации.
 
 
Скачать Прошлой ночью в Нью-Йорке / Last Night (2010) BDRip 1080p | D через торрент бесплатно на пкCopyright © 2019 .