Скачать Большой и добрый великан / The BFG (2016) BDRip 720p | Лицензия через торрент бесплатно на пк






Информация о фильме
Продолжительность: 01:57:38
Аудио#2: English: 48 kHz, DTS, 3/2 (L,C,R,l,r) + LFE ch, ~1536.00 kbps avg
Название: Большой и добрый великан
Видео: 1280x536 at 23.976 fps, x264@L4.1, ~5650 kbps avg
Студия: Amblin Entertainment, DreamWorks SKG, Reliance Entertainment
Формат: Matroska
Перевод: Профессиональный (дублированный) Blu-ray EUR

В ролях: Марк Райлэнс, Руби Барнхилл, Пенелопа Уилтон, Джемейн Клемент, Ребекка Холл, Рейф Сполл, Билл Хейдер, Оулавюр Дарри Оулафссон, Адам Годли, Майкл Адамуэйт

Качество: BDRip 720p
Год выхода: 2016
Оригинальное название: The BFG
Режиссер: Стивен Спилберг
Субтитры: Russian (Forced, iTunes), Russian (iTunes), English (iTunes)

***Сохранены оригинальные главы как на Blu-ray.
***Видеоряд - EbP!

MIОбщее
Уникальный идентификатор : 244336984503433389176648909019942617611 (0xB7D1976C63BDA9508DB636DE501A020B)
Полное имя : The.BFG.2016.Hybrid.720p.BluRay.Rus.Eng.HDCLUB.mkv
Формат : Matroska
Версия формата : Version 2
Размер файла : 6,54 Гбайт
Продолжительность : 1 ч. 57 м.
Общий поток : 7958 Кбит/сек
Название фильма : The BFG (2016) - Release for HDCLUB
Дата кодирования : UTC 2017-01-17 09:34:13
Программа кодирования : mkvmerge v3.4.0 ('Rapunzel') built on May 15 2010 09:38:20
Библиотека кодирования : libebml v0.8.0 + libmatroska v0.9.0

Видео
Идентификатор : 1
Формат : AVC
Формат/Информация : Advanced Video Codec
Профиль формата : High@L4.1
Параметр CABAC формата : Да
Параметр ReFrames формата : 12 кадров
Идентификатор кодека : V_MPEG4/ISO/AVC
Продолжительность : 1 ч. 57 м.
Битрейт : 5650 Кбит/сек
Ширина : 1280 пикселей
Высота : 536 пикселей
Соотношение сторон : 2,40:1
Режим частоты кадров : Постоянный
Частота кадров : 23,976 кадра/сек
Цветовое пространство : YUV
Субдискретизация насыщенности : 4:2:0
Битовая глубина : 8 бит
Тип развёртки : Прогрессивная
Бит/(Пиксели*Кадры) : 0.343
Размер потока : 4,64 Гбайт (71%)
Заголовок : The BFG (2016) - Release for HDCLUB
Библиотека кодирования : x264 core 142 r2431+42 c69a006 tMod [8-bit@4:2:0 X86_64]
Настройки программы : cabac=1 / ref=12 / deblock=1:-3:-3 / analyse=0x3:0x133 / me=umh / subme=10 / psy=1 / fade_compensate=0.00 / psy_rd=1.00:0.00 / mixed_ref=1 / me_range=32 / chroma_me=1 / trellis=2 / 8x8dct=1 / cqm=0 / deadzone=21,11 / fast_pskip=0 / chroma_qp_offset=-2 / threads=12 / lookahead_threads=2 / sliced_threads=0 / nr=0 / decimate=0 / interlaced=0 / bluray_compat=0 / constrained_intra=0 / fgo=0 / bframes=9 / b_pyramid=2 / b_adapt=2 / b_bias=0 / direct=3 / weightb=1 / open_gop=0 / weightp=2 / keyint=250 / keyint_min=23 / scenecut=40 / intra_refresh=0 / rc_lookahead=60 / rc=crf / mbtree=0 / crf=15.0000 / qcomp=0.65 / qpmin=0:0:0 / qpmax=69:69:69 / qpstep=4 / vbv_maxrate=50000 / vbv_bufsize=62500 / crf_max=0.0 / nal_hrd=none / filler=0 / ip_ratio=1.30 / pb_ratio=1.20 / aq=3:0.80 / aq-sensitivity=10.00 / aq-factor=1.00:1.00:1.00 / aq2=0 / aq3=0 / zones=57,1573,crf=12/14427,14534,crf=12/14718,14799,crf=12
Язык : English
Default : Да
Forced : Нет

Аудио #1
Идентификатор : 2
Формат : AC-3
Формат/Информация : Audio Coding 3
Расширение режима : CM (complete main)
Параметр Endianness формата : Big
Идентификатор кодека : A_AC3
Продолжительность : 1 ч. 57 м.
Вид битрейта : Постоянный
Битрейт : 640 Кбит/сек
Каналы : 6 каналов
Расположение каналов : Front: L C R, Side: L R, LFE
Частота : 48,0 КГц
Битовая глубина : 16 бит
Метод сжатия : С потерями
Размер потока : 539 Мбайт (8%)
Заголовок : AC3 5.1 @ 640 kbps - DUB, Blu-ray
Язык : Russian
Default : Да
Forced : Нет

Аудио #2
Идентификатор : 3
Формат : DTS
Формат/Информация : Digital Theater Systems
Режим : 16
Параметр Endianness формата : Big
Идентификатор кодека : A_DTS
Продолжительность : 1 ч. 57 м.
Вид битрейта : Постоянный
Битрейт : 1509 Кбит/сек
Каналы : 6 каналов
Расположение каналов : Front: L C R, Side: L R, LFE
Частота : 48,0 КГц
Битовая глубина : 24 бит
Метод сжатия : С потерями
Размер потока : 1,24 Гбайт (19%)
Заголовок : DTS 5.1 @ 1536 kbps
Язык : English
Default : Нет
Forced : Нет

Текст #1
Идентификатор : 4
Формат : UTF-8
Идентификатор кодека : S_TEXT/UTF8
Идентификатор кодека/Информация : UTF-8 Plain Text
Заголовок : Forced, iTunes
Язык : Russian
Default : Да
Forced : Нет

Текст #2
Идентификатор : 5
Формат : UTF-8
Идентификатор кодека : S_TEXT/UTF8
Идентификатор кодека/Информация : UTF-8 Plain Text
Заголовок : iTunes
Язык : Russian
Default : Нет
Forced : Нет

Текст #3
Идентификатор : 6
Формат : UTF-8
Идентификатор кодека : S_TEXT/UTF8
Идентификатор кодека/Информация : UTF-8 Plain Text
Заголовок : iTunes
Язык : English
Default : Нет
Forced : Нет

Меню
00:00:00.000 : en:00:00:00.000
00:07:56.935 : en:00:07:56.935
00:12:26.704 : en:00:12:26.704
00:19:27.083 : en:00:19:27.083
00:23:47.384 : en:00:23:47.384
00:25:35.492 : en:00:25:35.492
00:28:43.889 : en:00:28:43.889
00:37:19.362 : en:00:37:19.362
00:41:56.264 : en:00:41:56.264
00:46:21.028 : en:00:46:21.028
00:52:33.942 : en:00:52:33.942
00:58:18.078 : en:00:58:18.078
01:03:33.768 : en:01:03:33.768
01:12:04.904 : en:01:12:04.904
01:16:24.330 : en:01:16:24.330
01:26:29.393 : en:01:26:29.393
01:36:50.847 : en:01:36:50.847
01:42:01.615 : en:01:42:01.615
01:46:37.099 : en:01:46:37.099
01:49:29.229 : en:01:49:29.229Скриншоты Оценка10 из 10 (1 голосов, самая низкая оценка - 10, самая высокая - 10) КатегорияЗарубежные фильмы Раздают1 Качают0 Сидер замечен06-07-2019 11:19:12 (6 дней назад) Добавлен17-01-2017 14:55:32 (30 месяцев назад) Размер6.54 GB (7021605922 Bytes)О фильме:
В центре истории девочка по имени Софи, которая не смогла заснуть до полуночи и в окошко увидела огромного великана, который подходил к соседним домам и начинал дуть в окна спален. В полном соответствии со старинными поверьями и детскими страшилками, великан увидел Софи и унес к себе домой, в страну великанов.

Как оказалось, он в этой самой стране был единственным добрым великаном: действуя в обстановке строжайшей секретности, он коллекционировал хорошие сны, которые по ночам раздавал детям. Уши у него устроены таким образом, что он слышит, что и о чем снится ребятам, и никогда не позволяет им видеть кошмары.



Страна: Великобритания, Канада, США
Релиз:

Жанр: фэнтези, приключения, семейный
Aудио#1: Russian: 48 kHz, AC3, 3/2 (L,C,R,l,r) + LFE ch, ~640.00 kbps avg |Дубляж, Blu-ray EUR|

Если у вас возникли проблемы с закачкой Большой и добрый великан / The BFG (2016) BDRip 720p | Лицензия, перейдите по ссылке - там вы найдете решение своей проблемы.

Категория: Зарубежные фильмы

 

Скачать Большой и добрый великан / The BFG (2016) BDRip 720p | Лицензия через торрент бесплатно на пк

 

Информация
Посетители, находящиеся в группе Гости, не могут оставлять комментарии к данной публикации.
 
 
Скачать Большой и добрый великан / The BFG (2016) BDRip 720p | Лицензия через торрент бесплатно на пкCopyright © 2019 .