Скачать Bruce Springsteen - Tunnel Of Love (1987) FLAC от New-Team через торрент бесплатно на пк






Тип издания: CD , Album
Год издания диска: 1987
Аудиокодек: FLAC (*.flac)
Номер по каталогу: CBS 460270 2

Наличие сканов в содержимом раздачи: Да

Тип рипа: tracks+.cue
Страна-производитель диска: Europe
Жанр: Classic Rock, Pop Rock
attami ОценкаНикто ещё не поставил оценку КатегорияМузыка Раздают0 Качают1 Сидер замечен28-05-2019 16:19:12 (2 дня назад) Добавлен20-04-2014 13:15:54 (62 месяца назад) Размер301.57 MB (316222842 Bytes)Раздача от ЗалилBruce Springsteen - Tunnel Of Love - 1987 at Discogs

Издатель (лейбл): CBS
Продолжительность: 46:25
Треклист:
01. Ain't Got You - 2:07
02. Tougher Than The Rest - 4:34
03. All That Heaven Will Allow - 2:38
04. Spare Parts - 3:39
05. Cautious Man - 3:56
06. Walk Like A Man - 3:36
07. Tunnel Of Love - 5:10
08. Two Faces - 3:01
09. Brilliant Disguise - 4:15
10. One Step Up - 4:21
11. When You're Alone - 3:21
12. Valentine's Day - 5:13

Лог создания рипа
Exact Audio Copy V1.0 beta 3 from 29. August 2011

EAC extraction logfile from 19. April 2014, 11:32

Bruce Springsteen / Tunnel Of Love

Used drive : Optiarc DVD RW AD-7710H Adapter: 0 ID: 1

Read mode : Secure
Utilize accurate stream : Yes
Defeat audio cache : Yes
Make use of C2 pointers : No

Read offset correction : 48
Overread into Lead-In and Lead-Out : No
Fill up missing offset samples with silence : Yes
Delete leading and trailing silent blocks : No
Null samples used in CRC calculations : Yes
Used interface : Native Win32 interface for Win NT & 2000
Gap handling : Appended to previous track

Used output format : User Defined Encoder
Selected bitrate : 128 kBit/s
Quality : High
Add ID3 tag : No
Command line compressor : D:programsExact Audio Copy v .1.0 beta 3Exact Audio CopyFlacflac.exe
Additional command line options : -V -8 -T "Genre=%genre%" -T "Artist=%artist%" -T "Title=%title%" -T "Album=%albumtitle%" -T "Date=%year%" -T "Tracknumber=%tracknr%" -T "Comment=ripped by attami" %source%

TOC of the extracted CD

Track | Start | Length | Start sector | End sector
---------------------------------------------------------
1 | 0:00.00 | 2:11.02 | 0 | 9826
2 | 2:11.02 | 4:35.38 | 9827 | 30489
3 | 6:46.40 | 2:39.72 | 30490 | 42486
4 | 9:26.37 | 3:44.38 | 42487 | 59324
5 | 13:11.00 | 3:58.32 | 59325 | 77206
6 | 17:09.32 | 3:45.18 | 77207 | 94099
7 | 20:54.50 | 5:12.57 | 94100 | 117556
8 | 26:07.32 | 3:03.23 | 117557 | 131304
9 | 29:10.55 | 4:17.07 | 131305 | 150586
10 | 33:27.62 | 4:22.33 | 150587 | 170269
11 | 37:50.20 | 3:23.70 | 170270 | 185564
12 | 41:14.15 | 5:11.35 | 185565 | 208924

Track 1

Filename D:track+.cue_attamiBruce Springsteen - Tunnel Of Love (1987)1. Ain't got you.wav

Pre-gap length 0:00:02.00

Peak level 81.4 %
Extraction speed 1.0 X
Track quality 100.0 %
Test CRC 768EBC47
Copy CRC 768EBC47
Accurately ripped (confidence 97) [F86E544A] (AR v2)
Copy OK

Track 2

Filename D:track+.cue_attamiBruce Springsteen - Tunnel Of Love (1987)2. Tougher than the rest.wav

Pre-gap length 0:00:03.70

Peak level 100.0 %
Extraction speed 1.2 X
Track quality 100.0 %
Test CRC A54F76DD
Copy CRC A54F76DD
Accurately ripped (confidence 100) [A31C7252] (AR v2)
Copy OK

Track 3

Filename D:track+.cue_attamiBruce Springsteen - Tunnel Of Love (1987)3. All that heaven will allow.wav

Peak level 84.8 %
Extraction speed 1.2 X
Track quality 100.0 %
Test CRC 3CAC46D1
Copy CRC 3CAC46D1
Accurately ripped (confidence 99) [8D77F445] (AR v2)
Copy OK

Track 4

Filename D:track+.cue_attamiBruce Springsteen - Tunnel Of Love (1987)4. Spare parts.wav

Pre-gap length 0:00:00.42

Peak level 96.7 %
Extraction speed 1.4 X
Track quality 100.0 %
Test CRC 38D261AA
Copy CRC 38D261AA
Accurately ripped (confidence 99) [40283B2E] (AR v2)
Copy OK

Track 5

Filename D:track+.cue_attamiBruce Springsteen - Tunnel Of Love (1987)5. Cautious man.wav

Pre-gap length 0:00:05.18

Peak level 70.1 %
Extraction speed 1.5 X
Track quality 100.0 %
Test CRC 52B71EDD
Copy CRC 52B71EDD
Accurately ripped (confidence 99) [DF44EDA0] (AR v2)
Copy OK

Track 6

Filename D:track+.cue_attamiBruce Springsteen - Tunnel Of Love (1987)6. Walk like a man.wav

Pre-gap length 0:00:01.30

Peak level 78.0 %
Extraction speed 1.6 X
Track quality 100.0 %
Test CRC 15FCEDD1
Copy CRC 15FCEDD1
Accurately ripped (confidence 99) [78126F52] (AR v2)
Copy OK

Track 7

Filename D:track+.cue_attamiBruce Springsteen - Tunnel Of Love (1987)7. Tunnel of love.wav

Pre-gap length 0:00:07.03

Peak level 99.5 %
Extraction speed 1.8 X
Track quality 100.0 %
Test CRC 28EB17E9
Copy CRC 28EB17E9
Accurately ripped (confidence 99) [36EA20C4] (AR v2)
Copy OK

Track 8

Filename D:track+.cue_attamiBruce Springsteen - Tunnel Of Love (1987)8. Two faces.wav

Pre-gap length 0:00:01.30

Peak level 75.6 %
Extraction speed 1.7 X
Track quality 100.0 %
Test CRC F0D968CB
Copy CRC F0D968CB
Accurately ripped (confidence 99) [7B3733FE] (AR v2)
Copy OK

Track 9

Filename D:track+.cue_attamiBruce Springsteen - Tunnel Of Love (1987)9. Brilliant disguise.wav

Pre-gap length 0:00:01.55

Peak level 99.8 %
Extraction speed 1.9 X
Track quality 100.0 %
Test CRC 63AA9F0C
Copy CRC 63AA9F0C
Accurately ripped (confidence 97) [5DCF37BE] (AR v2)
Copy OK

Track 10

Filename D:track+.cue_attamiBruce Springsteen - Tunnel Of Love (1987)10. One step up.wav

Pre-gap length 0:00:01.57

Peak level 96.7 %
Extraction speed 2.0 X
Track quality 100.0 %
Test CRC 83D36F83
Copy CRC 83D36F83
Accurately ripped (confidence 98) [D659D119] (AR v2)
Copy OK

Track 11

Filename D:track+.cue_attamiBruce Springsteen - Tunnel Of Love (1987)11. When you're alone.wav

Pre-gap length 0:00:01.05

Peak level 78.9 %
Extraction speed 2.0 X
Track quality 100.0 %
Test CRC 135998D2
Copy CRC 135998D2
Accurately ripped (confidence 98) [BAB88AB4] (AR v2)
Copy OK

Track 12

Filename D:track+.cue_attamiBruce Springsteen - Tunnel Of Love (1987)12. Valentine's day.wav

Pre-gap length 0:00:01.58

Peak level 86.5 %
Extraction speed 2.2 X
Track quality 100.0 %
Test CRC 90132185
Copy CRC 90132185
Accurately ripped (confidence 97) [78890829] (AR v2)
Copy OK

All tracks accurately ripped

No errors occurred

End of status report

==== Log checksum 744F511481F65813D4C951B19862407733441B09A4276680521C760287590D4E ====



Содержание индексной карты (.CUE)
REM GENRE "Classic Rock"
REM DATE 1987
REM DISCID 9D0AE10C
REM COMMENT "ExactAudioCopy v1.0b3"
PERFORMER "Bruce Springsteen"
TITLE "Tunnel Of Love"
FILE "01. Ain't got you.wav" WAVE
TRACK 01 AUDIO
TITLE "Ain't got you"
PERFORMER "Bruce Springsteen"
INDEX 01 00:00:00
TRACK 02 AUDIO
TITLE "Tougher than the rest"
PERFORMER "Bruce Springsteen"
INDEX 00 02:07:07
FILE "02. Tougher than the rest.wav" WAVE
INDEX 01 00:00:00
FILE "03. All that heaven will allow.wav" WAVE
TRACK 03 AUDIO
TITLE "All that heaven will allow"
PERFORMER "Bruce Springsteen"
INDEX 01 00:00:00
TRACK 04 AUDIO
TITLE "Spare parts"
PERFORMER "Bruce Springsteen"
INDEX 00 02:39:30
FILE "04. Spare parts.wav" WAVE
INDEX 01 00:00:00
TRACK 05 AUDIO
TITLE "Cautious man"
PERFORMER "Bruce Springsteen"
INDEX 00 03:39:20
FILE "05. Cautious man.wav" WAVE
INDEX 01 00:00:00
TRACK 06 AUDIO
TITLE "Walk like a man"
PERFORMER "Bruce Springsteen"
INDEX 00 03:57:02
FILE "06. Walk like a man.wav" WAVE
INDEX 01 00:00:00
TRACK 07 AUDIO
TITLE "Tunnel of love"
PERFORMER "Bruce Springsteen"
INDEX 00 03:38:15
FILE "07. Tunnel of love.wav" WAVE
INDEX 01 00:00:00
TRACK 08 AUDIO
TITLE "Two faces"
PERFORMER "Bruce Springsteen"
INDEX 00 05:11:27
FILE "08. Two faces.wav" WAVE
INDEX 01 00:00:00
TRACK 09 AUDIO
TITLE "Brilliant disguise"
PERFORMER "Bruce Springsteen"
INDEX 00 03:01:43
FILE "09. Brilliant disguise.wav" WAVE
INDEX 01 00:00:00
TRACK 10 AUDIO
TITLE "One step up"
PERFORMER "Bruce Springsteen"
INDEX 00 04:15:25
FILE "10. One step up.wav" WAVE
INDEX 01 00:00:00
TRACK 11 AUDIO
TITLE "When you're alone"
PERFORMER "Bruce Springsteen"
INDEX 00 04:21:28
FILE "11. When you're alone.wav" WAVE
INDEX 01 00:00:00
TRACK 12 AUDIO
TITLE "Valentine's day"
PERFORMER "Bruce Springsteen"
INDEX 00 03:22:12
FILE "12. Valentine's day.wav" WAVE
INDEX 01 00:00:00



Источник (релизер): мой рип

Если у вас возникли проблемы с закачкой Bruce Springsteen - Tunnel Of Love (1987) FLAC от New-Team, перейдите по ссылке - там вы найдете решение своей проблемы.

Категория: Музыка

 

Скачать Bruce Springsteen - Tunnel Of Love (1987) FLAC от New-Team через торрент бесплатно на пк

 

Информация
Посетители, находящиеся в группе Гости, не могут оставлять комментарии к данной публикации.
 
 
Скачать Bruce Springsteen - Tunnel Of Love (1987) FLAC от New-Team через торрент бесплатно на пкCopyright © 2019 .